ML
     
  Уважаемый Гость!
Вы можете поддержать проект и зарегистрироваться у наших партнеров - онлайн-стратегия MyLands. При регистрации в игре Вы получите код, который сможете активировать после регистрации на pirat.ca и получить 1000 дублонов.

Ваш код:
93dbf9fbdfa06c41d3b5a2c3921149ba36168c41
 
     

Три мушкетера (Сергей Жигунов) [2013 г., приключения, DVDRip][Лицензия]

Ответить на тему
 
Автор
Сообщение

Пост 10-Дек-2013 19:52

[Q] 

aleksey99

--Три мушкетера--«Всё за любовь!»-- Производство: Россия
Режиссер: Сергей Жигунов
Жанр: приключения
Год выпуска: 2013 г.
Продолжительность: 01:58:34--Мировая премьера: 14 ноября 2013
Российская премьера: 14 ноября 2013, «Каропрокат»
Релиз на DVD: 9 декабря 2013, «Новый Диск»
Релиз на Blu-Ray: Январь 2014, «Новый Диск»--В ролях: Риналь Мухаметов, Юрий Чурсин, Алексей Макаров, Павел Баршак, Екатерина Вилкова, Анна Старшенбаум, Василий Лановой, Филипп Янковский, Константин Лавроненко, Мария Миронова--Описание: «Три мушкетера» — это история о юном гасконце Д’Артаньяне, который, не познав всех радостей любви, оказывается втянут в водоворот политических интриг королевского двора Людовика XIII. В роте королевских мушкетеров Де Тревиля он находит себе верных друзей Атоса, Портоса и Арамиса.
Мушкетеры настолько поражены кипучей энергией гасконца и его умением находить неприятности, что принимают самое живое участие не только в многочисленных стычках с гвардейцами кардинала, но и в личной судьбе Д’Артаньяна.
Благодаря друзьям Д’Артаньян находит свою первую любовь — Констанцию Бонасье и ввязывается в опаснейшую историю с подвесками Королевы. Тонкий и дальновидный политик кардинал Ришелье и его подручные Рошфор и Миледи обретают в лице Д’Артаньяна опаснейшего врага. Во имя любви он готов на самые отчаянные подвиги. На пути Д’Артаньяна немало опасных соблазнов и искушений. Но он их все преодолеет, не предав своей дружбы и любви!-- --Качество видео: DVDRip
Контейнер: AVI
Видео кодек: XviD
Аудио кодек: AC3
Видео: 720x400 (1.80:1), 25 fps, XviD build 50 ~2020 kbps avg, 0.28 bit/pixel
Аудио: 48 kHz, AC3 Dolby Digital, 3/2 (L,C,R,l,r) + LFE ch, ~448 kbps
Cубтитры: отсутствуют

Общее
Полное имя : H:\Torrent2\Tri.mushketera.2013.O.DVDRip.2100Mb_[pirat.ca].avi
Формат : AVI
Формат/Информация : Audio Video Interleave
Профиль формата : OpenDML
Размер файла : 2,05 Гбайт
Продолжительность : 1 ч. 58 м.
Общий поток : 2481 Кбит/сек
Программа кодирования : VirtualDubMod 1.5.10.3 | www.virtualdub-fr.org || (build 2550/release)
Библиотека кодирования : VirtualDubMod build 2550/release
Видео
Идентификатор : 0
Формат : MPEG-4 Visual
Профиль формата : Advanced [email protected]
Параметр BVOP формата : 2
Параметр QPel формата : Нет
Параметр GMC формата : Без точки перехода
Параметр матрицы формата : Выборочная
Идентификатор кодека : XVID
Идентификатор кодека/Подсказка : XviD
Продолжительность : 1 ч. 58 м.
Битрейт : 2020 Кбит/сек
Ширина : 720 пикселей
Высота : 400 пикселей
Соотношение сторон : 16:9
Частота кадров : 25,000 кадров/сек
Цветовое пространство : YUV
Субдискретизация насыщенности : 4:2:0
Битовая глубина : 8 бит
Тип развёртки : Прогрессивная
Метод сжатия : С потерями
Бит/(Пиксели*Кадры) : 0.281
Размер потока : 1,67 Гбайт (81%)
Библиотека кодирования : XviD 1.2.1 (UTC 2008-12-04)
Аудио
Идентификатор : 1
Формат : AC-3
Формат/Информация : Audio Coding 3
Расширение режима : CM (complete main)
Параметр Endianness формата : Big
Идентификатор кодека : 2000
Продолжительность : 1 ч. 58 м.
Вид битрейта : Постоянный
Битрейт : 448 Кбит/сек
Каналы : 6 каналов
Расположение каналов : Front: L C R, Side: L R, LFE
Частота : 48,0 КГц
Битовая глубина : 16 бит
Метод сжатия : С потерями
Размер потока : 380 Мбайт (18%)
Выравнивание : Разделение по промежуткам
Продолжительность промежутка : 40 мс. (1,00 видеокадр)
Время предзагрузки промежутка : 500 мс.
Трейлер
Download / Скачать

Хотите скачать бесплатно? Зарегистрируйтесь на сайте (ссылка на регистрацию). Pirat.ca - самый быстрый торрент трекер в рунете!

Как скачивать  ·   Что такое торрент  ·   Рейтинг и ограничения

Пост 10-Дек-2013 20:18 (спустя 25 минут)

Топик был перенесен из форума Наше кино (Трюм) в форум Новинки (HD|DVD|BD| TV|SAT|PDTV| - Rips)
kugesan
 

Ahzool

Корсар

Пост 10-Дек-2013 20:42 (спустя 49 минут)

[Q] 

будем посмотреть...мерсиба... Пиратка рулит!

_________________
Si non es occupatus quid natum moriendo occupatus es,beauty creatur vultus.
[Профиль]  [ЛС] 

Alien2000

Легенда

Пост 10-Дек-2013 20:51 (спустя 8 минут)

[Q] 

Спасибо!!!
На форуме  [Профиль]  [ЛС] 

Figur

Штурман

Пост 10-Дек-2013 21:35 (спустя 44 минуты)

[Q] 

Спасибо! Посмотрим!!!
[Профиль]  [ЛС] 

MikeB

Гроза морей

Пост 10-Дек-2013 22:22 (спустя 46 минут)

[Q] 

Спасибо!!!
[Профиль]  [ЛС] 

kinstintin

Гроза морей

Пост 10-Дек-2013 22:24 (спустя 1 минута)

[Q] 

А в чем разница между этой раздачей и этой: Три мушкетера (Сергей Жигунов) [2013 г., приключения, DVDRip][Лицензия] ?
Добавлено спустя 1 минута 14 секунд:
Но скачаю я этот - автору спасибо за труды!
[Профиль]  [ЛС] 

yellowbarmaley

Шкипер

Пост 10-Дек-2013 22:46 (спустя 21 минута)

[Q] 

Более бездарной экранизации Дюма, я в жизни не видел!
[Профиль]  [ЛС] 

Taps

Штурман

Пост 10-Дек-2013 23:02 (спустя 16 минут)

[Q] 

Теперь перед всеми премьерами наших легковесных фильмов буду читать рецензии на КиноПоиске.
Спасибо, что есть кнопка вверху.
Подозревал, что фильм дрянь и убедился в этом почитав рецензии.
Время терять не буду.
[Профиль]  [ЛС] 

Ahzool

Корсар

Пост 11-Дек-2013 01:36 (спустя 2 часа 33 минуты)

[Q] 

Д`Артаньян и три мушкетера 1979 года, на два порядка выше, действительно бездарно, хотя снято не дурно, но есть провалы по свету, про игру актерского состава промолчу, фильм на 2+...за релиз мерсиба. Спасибо!!! Раздающему респект!

_________________
Si non es occupatus quid natum moriendo occupatus es,beauty creatur vultus.
[Профиль]  [ЛС] 

Alpos2008

Штурман

Пост 11-Дек-2013 06:07 (спустя 4 часа)

[Q] 

даааа ужжж, это надо постараться специально, чтобы такое гуано снять.... 0 из 10.
[Профиль]  [ЛС] 

Alexe10

Гроза морей

36

Пост 11-Дек-2013 06:52 (спустя 44 минуты)

[Q] 

Судя по отзывам, качать не стоит
[Профиль]  [ЛС] 

Gari4

Флибустьер

Пост 11-Дек-2013 20:49 (спустя 13 часов)

[Q] 

говно полное...
[Профиль]  [ЛС] 

palanat1

Морской Волк

Пост 12-Дек-2013 00:25 (спустя 3 часа)

[Q] 

любопытно глянуть
[Профиль]  [ЛС] 

shalonina

Гроза морей

Пост 12-Дек-2013 12:22 (спустя 11 часов)

[Q] 

Спасибо!!!

_________________
[Профиль]  [ЛС] 

Saigak

Лоцман

Пост 12-Дек-2013 13:08 (спустя 45 минут)

[Q] 

Отстой полный даже не думал что такое говно может появиться на экранах
[Профиль]  [ЛС] 
Показать сообщения:    
Ответить на тему

Текущее время: Сегодня 20:19

Часовой пояс: GMT + 4



Вы не можете начинать темы
Вы не можете отвечать на сообщения
Вы не можете редактировать свои сообщения
Вы не можете удалять свои сообщения
Вы не можете голосовать в опросах
Вы не можете прикреплять файлы к сообщениям
Вы не можете скачивать файлы

▼ Вниз