ML
     
  Уважаемый Гость!
Вы можете поддержать проект и зарегистрироваться у наших партнеров - онлайн-стратегия MyLands. При регистрации в игре Вы получите код, который сможете активировать после регистрации на pirat.ca и получить 1000 дублонов.

Ваш код:
062e2babcc491faeb40d496cf9a498ac3df6cdd0
 
     

Шопинг-тур (Михаил Брашинский) [2012 г., ужасы, триллер, комедия, WEB-DLRip]

Ответить на тему
 
Автор
Сообщение

Пост 12-Дек-2013 20:08

[Q] 

aleksey99

--Шопинг-тур-- Производство: Россия, Финляндия
Режиссер: Михаил Брашинский
Жанр: ужасы, триллер, комедия
Год выпуска: 2012 г.
Продолжительность: 01:10:00--Мировая премьера: 25 ноября 2012
Российская премьера: 28 ноября 2013, «Централ Партнершип»--В ролях: Татьяна Колганова, Тимофей Елецкий, Татьяна Рябоконь, Сату Паавола--Описание: Группа русских туристов отправляется в Финляндию за покупками — а попадет в лапы людоедов. Оказывается, есть один день в году, день летнего солнцестояния, когда каждый финн по древней традиции должен съесть иностранца, и сегодня — этот день. Фильм снят на мобильный телефон одним из героев — 15-летним мальчиком, которому мама на окончание 8-го класса подарила мобильник и поездку в Финляндию.-- --Качество видео: WEB-DLRip
Контейнер: AVI
Видео кодек: XviD
Аудио кодек: AC3
Видео: 720x400 (1.80:1), 24 fps, XviD build 50 ~2199 kbps avg, 0.32 bit/pixel
Аудио: 48 kHz, AC3 Dolby Digital, 3/2 (L,C,R,l,r) + LFE ch, ~384 kbps
Cубтитры: отсутствуют

Общее
Полное имя : H:\Torrent2\Sh0p1ng.tur.2012.O.WEBDLRip_[pirat.ca].avi
Формат : AVI
Формат/Информация : Audio Video Interleave
Размер файла : 1,27 Гбайт
Продолжительность : 1 ч. 10 м.
Общий поток : 2593 Кбит/сек
Программа кодирования : VirtualDubMod 1.5.10.3 | www.virtualdub-fr.org || (build 2550/release)
Библиотека кодирования : VirtualDubMod build 2550/release
Видео
Идентификатор : 0
Формат : MPEG-4 Visual
Профиль формата : Advanced [email protected]
Параметр BVOP формата : 2
Параметр QPel формата : Нет
Параметр GMC формата : Без точки перехода
Параметр матрицы формата : Выборочная
Идентификатор кодека : XVID
Идентификатор кодека/Подсказка : XviD
Продолжительность : 1 ч. 10 м.
Битрейт : 2200 Кбит/сек
Ширина : 720 пикселей
Высота : 400 пикселей
Соотношение сторон : 16:9
Частота кадров : 24,000 кадра/сек
Цветовое пространство : YUV
Субдискретизация насыщенности : 4:2:0
Битовая глубина : 8 бит
Тип развёртки : Прогрессивная
Метод сжатия : С потерями
Бит/(Пиксели*Кадры) : 0.318
Размер потока : 1,08 Гбайт (85%)
Библиотека кодирования : XviD 1.2.1 (UTC 2008-12-04)
Аудио
Идентификатор : 1
Формат : AC-3
Формат/Информация : Audio Coding 3
Расширение режима : CM (complete main)
Параметр Endianness формата : Big
Идентификатор кодека : 2000
Продолжительность : 1 ч. 10 м.
Вид битрейта : Постоянный
Битрейт : 384 Кбит/сек
Каналы : 6 каналов
Расположение каналов : Front: L C R, Side: L R, LFE
Частота : 48,0 КГц
Битовая глубина : 16 бит
Метод сжатия : С потерями
Размер потока : 192 Мбайт (15%)
Выравнивание : Разделение по промежуткам
Продолжительность промежутка : 42 мс. (1,00 видеокадр)
Время предзагрузки промежутка : 500 мс.
Трейлер
Download / Скачать

Хотите скачать бесплатно? Зарегистрируйтесь на сайте (ссылка на регистрацию). Pirat.ca - самый быстрый торрент трекер в рунете!

Как скачивать  ·   Что такое торрент  ·   Рейтинг и ограничения

Пост 12-Дек-2013 22:17 (спустя 2 часа 8 минут)

Топик был перенесен из форума Наше кино (Трюм) в форум Новинки (HD|DVD|BD| TV|SAT|PDTV| - Rips)
kugesan
 

Innesa

Шкипер

Пост 13-Дек-2013 09:02 (спустя 12 часов)

[Q] 

Наверняка шедевр!!!!!!!!!!!!! Качать не буду, АВТОРУ спасибо за труд, но обезателЬно почитаю отзывы, ИНТЕРЕСНО Автору респект!!!
[Профиль]  [ЛС] 

crash27

Лоцман

Пост 13-Дек-2013 20:11 (спустя 11 часов)

[Q] 

Скачай и посмотри, а то откуда отзывы будут?
[Профиль]  [ЛС] 

maxmozg

Лоцман

Пост 13-Дек-2013 23:22 (спустя 3 часа)

[Q] 

Самый редкий кал ,ККААААККК такое дерьмо снимают ????
[Профиль]  [ЛС] 

Амангельды

35485

Пост 13-Дек-2013 23:30 (спустя 8 минут)

[Q] 

Все правильно, финцы жрут людей... Медленно...

_________________

Товарищ, верь, пройдет она,
Так называемая гласность.
И вот тогда госбезопасность
Припомнит ваши имена
Раздачи от Амангельды - ТЫНЦ
[Профиль]  [ЛС] 

Saevus

Корсар

Пост 14-Дек-2013 22:55 (спустя 23 часа)

[Q] 

461873Все правильно, финцы жрут людей... Медленно...
После слова "медленно" сразу захотелось посмотреть))) bj
[Профиль]  [ЛС] 

Alpos2008

Штурман

Пост 14-Дек-2013 23:03 (спустя 7 минут)

[Q] 

каждый финн по древней традиции должен съесть иностранца
вопросов больше не имею.
[Профиль]  [ЛС] 

Benzyn

Штурман

Пост 22-Дек-2013 10:26 (спустя 7 дней)

[Q] 

у меня только знакомая вернулась от туда, нужно ей порекомендовать)))
[Профиль]  [ЛС] 

rad71

Штурман

Пост 23-Дек-2013 19:43 (спустя 1 день 9 часов)

[Q] 

почитал коменты и не стал качать))))) автор кувалда!!!!!! SOS!!!
[Профиль]  [ЛС] 

julietta28

Лоцман

Пост 23-Дек-2013 20:24 (спустя 41 минута)

[Q] 

почитали комменты, тоже передумали качать.
[Профиль]  [ЛС] 

kudrjavy

Флибустьер

Пост 24-Дек-2013 22:04 (спустя 1 день 1 час)

[Q] 

Финн...)))))0 посмотрим))) Спасибо!!!

_________________
Девушки-как печеньки: ломаются,пока не намокнут...
[Профиль]  [ЛС] 

kuzmin

Штурман

Пост 24-Дек-2013 22:05 (спустя 1 минута)

[Q] 

смотреть не стоит?
[Профиль]  [ЛС] 
Показать сообщения:    
Ответить на тему

Текущее время: Сегодня 17:40

Часовой пояс: GMT + 4



Вы не можете начинать темы
Вы не можете отвечать на сообщения
Вы не можете редактировать свои сообщения
Вы не можете удалять свои сообщения
Вы не можете голосовать в опросах
Вы не можете прикреплять файлы к сообщениям
Вы не можете скачивать файлы

▼ Вниз