ML
     
  Уважаемый Гость!
Вы можете поддержать проект и зарегистрироваться у наших партнеров - онлайн-стратегия MyLands. При регистрации в игре Вы получите код, который сможете активировать после регистрации на pirat.ca и получить 1000 дублонов.

Ваш код:
aec9a4a936117fb450ba69e519991a0465404b1d
 
     

Распутин (Ираклий Квирикадзе) [2013 г., драма, биография, история, DVDRip-AVC] [Лицензия]

Ответить на тему
 
Автор
Сообщение

Пост 13-Дек-2013 23:44

[Q] 

kugesan

Распутин«Дар или проклятие»- Производство: Россия, B-Tween, ВГТРК
Режиссер: Ираклий Квирикадзе
Жанр: драма, биография, история
Год выпуска: 2013 г.
Продолжительность: 01:23:02
Озвучивание: Оригинал [Лицензия]-Мировая премьера: 7 ноября 2013
Российская премьера: 7 ноября 2013, «WDSSPR»
Релиз на DVD: 16 декабря 2013, «Парадиз / Активижен»
Релиз на Blu-Ray: 16 декабря 2013, «Парадиз / Активижен»-В ролях: Жерар Депардье, Фанни Ардан, Владимир Машков, Анна Михалкова, Филипп Янковский, Ирина Алферова, Данила Козловский, Юрий, Колокольников, Ксения Раппопорт, Константин Хабенский-Описание:
Начало ХХ века, Европа охвачена войной, Российская империя на краю пропасти. Внезапное появление загадочного Григория Распутина в царских покоях вызывает волну негодования при дворе. Сибирский целитель облегчает страдания неизлечимо больного наследника престола, проповедует и творит чудеса. Императрица уверена, что всё не случайно и Григорий — божий человек, спаситель, посланный свыше. Ее уверенность разделяют далеко не все. Вокруг «святого беса» плетутся заговоры, его мистическая власть над царской семьей и нежная дружба с императрицей раздражают слишком многих. Россия, монархия и Распутин в эпицентре приближающейся катастрофы.-Качество видео: DVDRip-AVC
Контейнер: MKV
Видео кодек: H.264
Аудио кодек: AC3
Видео: AVC at 2100 Кбит/сек: 1024 x 544 (1.873) at 25.000 fps, 0.151 bit/pixel
Аудио: AC-3 at 448 Кбит/сек: 6 каналов, 48,0 КГц
Cубтитры: отсутствуют

-
Код:
Общее
Уникальный идентификатор                 : 185130633351344768739642489709982897867 (0x8B46DCF027A7572D8D5CF7E37D0BD6CB)
Полное имя                               : E:\uTorDown\uTorrent\Films\Распутин.2013.DVDRip-AVC_[pirat.ca].mkv
Формат                                   : Matroska
Версия формата                           : Version 4 / Version 2
Размер файла                             : 1,48 Гбайт
Продолжительность                        : 1 ч. 23 м.
Общий поток                              : 2549 Кбит/сек
Дата кодирования                         : UTC 2013-12-12 17:57:33
Программа кодирования                    : mkvmerge v6.4.1 ('Omega Point') built on Sep 16 2013 22:05:10
Библиотека кодирования                   : libebml v1.3.0 + libmatroska v1.4.1
Видео
Идентификатор                            : 1
Формат                                   : AVC
Формат/Информация                        : Advanced Video Codec
Профиль формата                          : [email protected]
Параметр CABAC формата                   : Да
Параметр ReFrames формата                : 10 кадров
Идентификатор кодека                     : V_MPEG4/ISO/AVC
Продолжительность                        : 1 ч. 23 м.
Битрейт                                  : 2100 Кбит/сек
Ширина                                   : 1024 пикселя
Высота                                   : 544 пикселя
Соотношение сторон                       : 1,85:1
Соотношение сторон в оригинале           : 1,85:1
Режим частоты кадров                     : Постоянный
Частота кадров                           : 25,000 кадров/сек
Цветовое пространство                    : YUV
Субдискретизация насыщенности            : 4:2:0
Битовая глубина                          : 8 бит
Тип развёртки                            : Прогрессивная
Бит/(Пиксели*Кадры)                      : 0.151
Размер потока                            : 1,19 Гбайт (80%)
Библиотека кодирования                   : x264 core 124 r2197M 69a0443
Настройки программы                      : cabac=1 / ref=11 / deblock=1:0:0 / analyse=0x3:0x133 / me=umh / subme=9 / psy=1 / psy_rd=1.00:0.20 / mixed_ref=1 / me_range=11 / chroma_me=1 / trellis=0 / 8x8dct=1 / cqm=0 / deadzone=21,11 / fast_pskip=1 / chroma_qp_offset=-2 / threads=2 / sliced_threads=0 / nr=0 / decimate=1 / interlaced=0 / bluray_compat=0 / constrained_intra=0 / bframes=11 / b_pyramid=1 / b_adapt=0 / b_bias=0 / direct=3 / weightb=1 / open_gop=0 / weightp=0 / keyint=250 / keyint_min=25 / scenecut=40 / intra_refresh=0 / rc_lookahead=40 / rc=2pass / mbtree=1 / bitrate=2100 / ratetol=1.0 / qcomp=0.60 / qpmin=10 / qpmax=51 / qpstep=4 / cplxblur=20.0 / qblur=0.5 / ip_ratio=1.40 / aq=1:1.00
Default                                  : Да
Forced                                   : Нет
Аудио
Идентификатор                            : 2
Формат                                   : AC-3
Формат/Информация                        : Audio Coding 3
Расширение режима                        : CM (complete main)
Параметр Endianness формата              : Big
Идентификатор кодека                     : A_AC3
Продолжительность                        : 1 ч. 23 м.
Вид битрейта                             : Постоянный
Битрейт                                  : 448 Кбит/сек
Каналы                                   : 6 каналов
Расположение каналов                     : Front: L C R, Side: L R, LFE
Частота                                  : 48,0 КГц
Битовая глубина                          : 16 бит
Метод сжатия                             : С потерями
Размер потока                            : 266 Мбайт (18%)
Язык                                     : Russian
Default                                  : Да
Forced                                   : Нет
-
Download / Скачать

Хотите скачать бесплатно? Зарегистрируйтесь на сайте (ссылка на регистрацию). Pirat.ca - самый быстрый торрент трекер в рунете!

Как скачивать  ·   Что такое торрент  ·   Рейтинг и ограничения

ShobON

Шкипер

Пост 14-Дек-2013 00:19 (спустя 34 минуты)

[Q] 

Мда. Пусть и нохче навица Департьеров (аля раша), но не до того же. кина никуда. На любителя
Аффтору спс.
Раз и только раз (просмотр)
Автору респект!!!
[Профиль]  [ЛС] 

Пост 14-Дек-2013 08:16 (спустя 7 часов)

Топик был перенесен из форума Зарубежное Кино (Трюм) в форум Новинки (HD|DVD|BD| TV|SAT|PDTV| - Rips)
aleksey99
 

femaxx

Корсар

Пост 15-Дек-2013 17:48 (спустя 1 день 17 часов)

[Q] 

Спасибо!!!
[Профиль]  [ЛС] 

kugesan ®

56634

Пост 15-Дек-2013 21:09 (спустя 3 часа)

[Q] 

Приятного просмотра!!!

_________________

В мире две бесконечности: вселенная и человеческая глупость - Альберт Эйнштен
«Можно вытащить человека из грязи, но нельзя вытащить грязь из человека»!
[Профиль]  [ЛС] 
Показать сообщения:    
Ответить на тему

Текущее время: Сегодня 02:25

Часовой пояс: GMT + 4



Вы не можете начинать темы
Вы не можете отвечать на сообщения
Вы не можете редактировать свои сообщения
Вы не можете удалять свои сообщения
Вы не можете голосовать в опросах
Вы не можете прикреплять файлы к сообщениям
Вы не можете скачивать файлы

▼ Вниз