ML
     
  Уважаемый Гость!
Вы можете поддержать проект и зарегистрироваться у наших партнеров - онлайн-стратегия MyLands. При регистрации в игре Вы получите код, который сможете активировать после регистрации на pirat.ca и получить 1000 дублонов.

Ваш код:
4399ab8611ee7f8a22949d2ee7634160dd2db7e0
 
     

Тело будет предано земле, а старший мичман будет петь (Илья Макаров) [1998 г., сюрреалистическая комедия, DVDRip]

Ответить на тему
 
Автор
Сообщение

Пост 19-Дек-2013 09:51

[Q] 

vladiko1

Лоцман

-Тело будет предано земле, а старший мичман будет петь -- Производство: Россия
Режиссер: Илья Макаров
Жанр: сюрреалистическая комедия
Год выпуска: 1998 г.
Продолжительность: 01:37:04
Российская премьера: 01 марта 1998
В ролях: Лилия Азаркина, Андрей Барило, Владимир Богданов, Евгения Игумнова, Александр Лазарев мл., Илья Шакунов, Александр Строев, Артем Цыпин, Михаил Пореченков, Леонид Ворон.-Описание:
Гонки на иномарках. Промозглый питерский дождь. Ночные клубы. Запах винила. Опера. Наркотики. Стрельба на поражение. Кожаные плащи. Драки. Номера в гостиницах. Татуировки. Смерть… Главная ставка в игре — тело покойного «Капитана», который и после смерти способен причинить немало неприятностей тем, кто его знал…-КиноПоиск
Качество видео: DVDRip
Контейнер: AVI
Видео кодек: XviD
Аудио кодек: AC3
Видео: 640x448 25.00fps 1814Kbps XVID MPEG-4 0.26b/px
Аудио: Dolby AC3 48000Hz stereo 192Kbps
Cубтитры: отсутствуют
Общее
Полное имя : C:\Users\WINNER 1\Videos\Telo_budet_predano_zemle_a_starshiy_michman_budet_pet_DVDRip.avi
Формат : AVI
Формат/Информация : Audio Video Interleave
Размер файла : 1,37 Гбайт
Продолжительность : 1 ч. 37 м.
Общий поток : 2013 Кбит/сек
Программа кодирования : VirtualDubMod 1.5.4.1 (build 2178/release)
Библиотека кодирования : VirtualDubMod build 2178/release
Видео
Идентификатор : 0
Формат : MPEG-4 Visual
Профиль формата : Advanced [email protected]
Параметр BVOP формата : 1
Параметр QPel формата : Нет
Параметр GMC формата : Без точки перехода
Параметр матрицы формата : Выборочная
Идентификатор кодека : XVID
Идентификатор кодека/Подсказка : XviD
Продолжительность : 1 ч. 37 м.
Битрейт : 1814 Кбит/сек
Ширина : 640 пикселей
Высота : 448 пикселей
Соотношение сторон : 1,429
Частота кадров : 25,000 кадров/сек
Цветовое пространство : YUV
Субдискретизация насыщенности : 4:2:0
Битовая глубина : 8 бит
Тип развёртки : Прогрессивная
Метод сжатия : С потерями
Бит/(Пиксели*Кадры) : 0.253
Размер потока : 1,23 Гбайт (90%)
Библиотека кодирования : XviD 1.2.0SMP (UTC 2006-01-08)
Аудио
Идентификатор : 1
Формат : AC-3
Формат/Информация : Audio Coding 3
Расширение режима : CM (complete main)
Параметр Endianness формата : Big
Идентификатор кодека : 2000
Продолжительность : 1 ч. 37 м.
Вид битрейта : Постоянный
Битрейт : 192 Кбит/сек
Каналы : 2 канала
Расположение каналов : Front: L R
Частота : 48,0 КГц
Битовая глубина : 16 бит
Метод сжатия : С потерями
Размер потока : 134 Мбайт (10%)
Выравнивание : Разделение по промежуткам
Продолжительность промежутка : 96 мс. (2,40 видеокадра)
Время предзагрузки промежутка : 96 мс.
Язык : Russian
Кокаин, бандиты, разборки, клубы, тату, актеры и ди-джеи в обжигающем нервы коктейле – даже самое полное изложение шокирующего сюжета вряд ли даст возможность почувствовать, сколь поразительное и по-своему яркое кино получилось у дебютанта Ильи Макарова. Как и фильм "Мама, не горюй", тоже снятый по сценарию Константина Мурзенко, по форме эта картина – история о случайных встречах представителей знаковых слоев общества, сдобренная морской романтикой, а по сути – фильм о современной жизни в крайних ее проявлениях. Если у героя есть автомобиль, то это черный "Порше" (у крутого парня Игоря) или ярко-желтый"Фольксваген"-жук (у ди-джея Макса); если героиня актриса, то она совершает "сумасбродства"; если герои говорят, то это либо произносимые куда-то в воздух, мимо партнера, фразы, либо околомистическая белиберда – но в любом случае текст хочется запомнить ицитировать по поводу и без повода. В фильме так много штампов и дурновкусия, что, как ни странно, именно это и составляет его положительную сторону. В нем есть главное – страстное желание делать кино, и это заряжает картину странной энергией, заставляющей, не отрываясь, смотреть на экран до самого финала (который сделан уж очень сознательно-"стебным" и потому развеивает очарование наивности). журнал «Premiere», 1998, № 4 (10)
Download / Скачать

Хотите скачать бесплатно? Зарегистрируйтесь на сайте (ссылка на регистрацию). Pirat.ca - самый быстрый торрент трекер в рунете!

Как скачивать  ·   Что такое торрент  ·   Рейтинг и ограничения



Последний раз редактировалось: vladiko1 (2013-12-20 09:24), всего редактировалось 2 раз(а)

kisu

Гроза морей

Пост 19-Дек-2013 10:12 (спустя 21 минута)

[Q] 

описание впечатляет!
[Профиль]  [ЛС] 

Пост 20-Дек-2013 11:27 (спустя 1 день 1 час)

Топик был перенесен из форума Наше кино (Трюм) в форум Российские фильмы
kugesan
 

Dysy

Морской Волк

Пост 26-Дек-2013 16:18 (спустя 7 дней)

[Q] 

ну чтож посмотрим Ку три раза
[Профиль]  [ЛС] 
Показать сообщения:    
Ответить на тему

Текущее время: Сегодня 10:46

Часовой пояс: GMT + 4



Вы не можете начинать темы
Вы не можете отвечать на сообщения
Вы не можете редактировать свои сообщения
Вы не можете удалять свои сообщения
Вы не можете голосовать в опросах
Вы не можете прикреплять файлы к сообщениям
Вы не можете скачивать файлы

▼ Вниз