ML
     
  Уважаемый Гость!
Вы можете поддержать проект и зарегистрироваться у наших партнеров - онлайн-стратегия MyLands. При регистрации в игре Вы получите код, который сможете активировать после регистрации на pirat.ca и получить 1000 дублонов.

Ваш код:
8b29d0f8cd61fe457e59e7df0aa1fab41a2b88b9
 
     

Рандом (Павел Кхвалеев) [2013 г., драма, мистика, музыка, WEB-DLRip]

Ответить на тему
 
Автор
Сообщение

Пост 24-Дек-2013 06:50

[Q] 

aleksey99

-Рандом- Производство: Россия
Режиссер: Павел Кхвалеев
Жанр: драма, мистика, музыка
Год выпуска: 2013 г.
Продолжительность: 01:28:27-Российская премьера: 18 декабря 2013-В ролях: Игорь Преображенский, Авис Вокс, Екатерина Сиротина, Блэкфилл Вайт, Павел Кхвалеев, Евгений Чрамов-Описание: Девушка из другого измерения использует таинственную функцию «РАНДОМ» для материализации в нашем мире и выполнения определенной миссии. Ей неизвестна цель, ее ведет только интуиция и 100%-ное доверие Игре. На своем пути в город она встречает разных людей – тех, кому должна помочь. И тех, с кем лучше не встречаться... Беременная девушка, обладающая удивительным даром. Страховой агент, исследующий свою темную сторону. Женщина-полицейский, танцующая фламенко. Мужчина, пытающийся разыскать дочь, брошенную им 20 лет назад... Их роли тоже неслучайны - в этой сложной игре с названием «РАНДОМ».-
-Качество видео: WEB-DLRip
Контейнер: AVI
Видео кодек: XviD
Аудио кодек: AC3
Видео: 720x304 (2.37:1), 23.976 fps, XviD build 50 ~1818 kbps avg, 0.35 bit/pixel
Аудио: 48 kHz, AC3 Dolby Digital, 3/2 (L,C,R,l,r) + LFE ch, ~384 kbps
Cубтитры: Отсутствуют
Общее
Полное имя : D:\Torrent 2\Random.2013.O.WEB-DLRip_[pirat.ca].avi
Формат : AVI
Формат/Информация : Audio Video Interleave
Размер файла : 1,37 Гбайт
Продолжительность : 1 ч. 28 м.
Общий поток : 2212 Кбит/сек
Программа кодирования : VirtualDubMod 1.5.10.3 (build 2550/release)
Библиотека кодирования : VirtualDubMod build 2550/release
Видео
Идентификатор : 0
Формат : MPEG-4 Visual
Профиль формата : Advanced [email protected]
Параметр BVOP формата : 2
Параметр QPel формата : Нет
Параметр GMC формата : Без точки перехода
Параметр матрицы формата : Выборочная
Идентификатор кодека : XVID
Идентификатор кодека/Подсказка : XviD
Продолжительность : 1 ч. 28 м.
Битрейт : 1819 Кбит/сек
Ширина : 720 пикселей
Высота : 304 пикселя
Соотношение сторон : 2,35:1
Частота кадров : 23,976 кадра/сек
Цветовое пространство : YUV
Субдискретизация насыщенности : 4:2:0
Битовая глубина : 8 бит
Тип развёртки : Прогрессивная
Метод сжатия : С потерями
Бит/(Пиксели*Кадры) : 0.347
Размер потока : 1,12 Гбайт (82%)
Библиотека кодирования : XviD 1.2.1 (UTC 2008-12-04)
Аудио
Идентификатор : 1
Формат : AC-3
Формат/Информация : Audio Coding 3
Расширение режима : CM (complete main)
Параметр Endianness формата : Big
Идентификатор кодека : 2000
Продолжительность : 1 ч. 28 м.
Вид битрейта : Постоянный
Битрейт : 384 Кбит/сек
Каналы : 6 каналов
Расположение каналов : Front: L C R, Side: L R, LFE
Частота : 48,0 КГц
Битовая глубина : 16 бит
Метод сжатия : С потерями
Размер потока : 243 Мбайт (17%)
Выравнивание : Разделение по промежуткам
Продолжительность промежутка : 42 мс. (1,00 видеокадр)
Время предзагрузки промежутка : 500 мс.
Download / Скачать

Хотите скачать бесплатно? Зарегистрируйтесь на сайте (ссылка на регистрацию). Pirat.ca - самый быстрый торрент трекер в рунете!

Как скачивать  ·   Что такое торрент  ·   Рейтинг и ограничения

Пост 24-Дек-2013 11:11 (спустя 4 часа)

Топик был перенесен из форума Наше кино (Трюм) в форум Новинки (HD|DVD|BD| TV|SAT|PDTV| - Rips)
kugesan
 

polozm

Легенда

Пост 24-Дек-2013 15:38 (спустя 8 часов)

[Q] 

описание вроде интересное ...еще никто не глянул?

_________________
mac mini -2.0 GHz Intel Core i7/ 8 GB DDR3. /Intel HD 3000(512mb)OS X 10.9 Mavericks
[Профиль]  [ЛС] 

VNXX

Корсар

Пост 25-Дек-2013 00:00 (спустя 8 часов)

[Q] 

Странно, что на кинопоиске ничего про фильм нету. Описание вроде ничего. Качну, посмотрю на выходных
[Профиль]  [ЛС] 

viktor174

Корсар

Пост 25-Дек-2013 07:35 (спустя 7 часов)

[Q] 

Посмотрел, так себе . Весь фильм ждал , вот сейчас начнётся действие , просто завязка медленно развивается . Фильм закончился , не дождался ,не началось . Раздающему респект!
[Профиль]  [ЛС] 

Romus80

Штурман

Пост 25-Дек-2013 21:31 (спустя 13 часов)

[Q] 

С Наступающим новым годом ! Супер!
[Профиль]  [ЛС] 

sergeias82

Лоцман

Пост 28-Дек-2013 19:59 (спустя 2 дня 22 часа)

[Q] 

Полнейшая фигня, просто ни о чем.
[Профиль]  [ЛС] 

Datchanin

Корсар

36

Пост 29-Дек-2013 22:09 (спустя 1 день 2 часа)

[Q] 

Описание заинтриговало, надо глянуть. Вдруг там скрытый смысл тщательно зашифрованный автором, в том числе и от себя ))

_________________
[Профиль]  [ЛС] 

sevensv

Легенда

2598

Пост 30-Дек-2013 13:14 (спустя 15 часов)

[Q] 

Фильм так себе...Всех с новым годом... Автору респект!!!
[Профиль]  [ЛС] 

bs_z03

Шкипер

Пост 30-Дек-2013 16:01 (спустя 2 часа 46 минут)

[Q] 

на раз глянуть... под ЛСД
[Профиль]  [ЛС] 

KoSkud

Флибустьер

Пост 30-Дек-2013 17:12 (спустя 1 час 11 минут)

[Q] 

468756Описание заинтриговало, надо глянуть. Вдруг там скрытый смысл тщательно зашифрованный автором, в том числе и от себя ))
bj ну и как результат? братьев Вачковски (Матрица) наши не уделали я так понимаю?

_________________
Учись-играя,играя-учись
[Профиль]  [ЛС] 

feldorius

Корсар

Пост 31-Дек-2013 15:53 (спустя 22 часа)

[Q] 

Херня редчайшая. Единственный момент интересный - это вампир, делающий анализ крови...
Все...
[Профиль]  [ЛС] 

prohodilmimo

Корсар

24

Пост 31-Дек-2013 19:07 (спустя 3 часа)

[Q] 

Ху есть ху... фу
[Профиль]  [ЛС] 
Показать сообщения:    
Ответить на тему

Текущее время: Сегодня 21:25

Часовой пояс: GMT + 4



Вы не можете начинать темы
Вы не можете отвечать на сообщения
Вы не можете редактировать свои сообщения
Вы не можете удалять свои сообщения
Вы не можете голосовать в опросах
Вы не можете прикреплять файлы к сообщениям
Вы не можете скачивать файлы

▼ Вниз