ML
     
  Уважаемый Гость!
Вы можете поддержать проект и зарегистрироваться у наших партнеров - онлайн-стратегия MyLands. При регистрации в игре Вы получите код, который сможете активировать после регистрации на pirat.ca и получить 1000 дублонов.

Ваш код:
dbd0d701284cde74a1f34d06ce20b7bc75a73e75
 
     

Географ глобус пропил (Александр Велединский) [2013 г., драма, HDRip][Лицензия]

Ответить на тему
 
Автор
Сообщение

Пост 25-Дек-2013 06:44

[Q] 

aleksey99

--Географ глобус пропил-- Производство: Россия, Мармот-фильм, Красная стрела
Режиссер: Александр Велединский
Жанр: драма
Год выпуска: 2013 г.
Продолжительность: 02:04:51--Мировая премьера: 26 июля 2013
Российская премьера: 7 ноября 2013, «Наше Кино»
Дата выхода DVD: 16 января 2014, «CP Дистрибуция»
Релиз на Blu-Ray: 16 января 2014, «CP Дистрибуция»--В ролях: Константин Хабенский, Елена Лядова, Александр Робак, Евгения Брик, Анна Уколова, Евгения Крегжде, Агриппина Стеклова, Максим Лагашкин, Анфиса Черных, Андрей Прытков--Описание: Молодой биолог Виктор Служкин от безденежья идет работать учителем географии в обычную пермскую школу. Он борется, а потом и дружит с учениками, конфликтует с завучем, ведет девятиклассников в поход — сплавляться по реке. Еще он пьет с друзьями вино, пытается ужиться с женой и водит в детский сад маленькую дочку. Он просто живет…-- --Трейлер--Качество видео: HDRip
Контейнер: AVI
Видео кодек: XviD
Аудио кодек: AC3
Видео: 720x304 (2.37:1), 24 fps, XviD build 50 ~1900 kbps avg, 0.36 bit/pixel
Аудио: 48 kHz, AC3 Dolby Digital, 3/2 (L,C,R,l,r) + LFE ch, ~448 kbps
Cубтитры: Отсутствуют
Общее
Полное имя : H:\Torrent2\Geograf.globus.propil.2013.O.HDRip.2100MB_[pirat.ca].avi
Формат : AVI
Формат/Информация : Audio Video Interleave
Размер файла : 2,06 Гбайт
Продолжительность : 2 ч. 4 м.
Общий поток : 2358 Кбит/сек
Программа кодирования : VirtualDubMod 1.5.10.2 (build 2540/release)
Библиотека кодирования : VirtualDubMod build 2540/release
Видео
Идентификатор : 0
Формат : MPEG-4 Visual
Профиль формата : Advanced [email protected]
Параметр BVOP формата : 2
Параметр QPel формата : Нет
Параметр GMC формата : Без точки перехода
Параметр матрицы формата : Выборочная
Идентификатор кодека : XVID
Идентификатор кодека/Подсказка : XviD
Продолжительность : 2 ч. 4 м.
Битрейт : 1901 Кбит/сек
Ширина : 720 пикселей
Высота : 304 пикселя
Соотношение сторон : 2,35:1
Частота кадров : 24,000 кадра/сек
Цветовое пространство : YUV
Субдискретизация насыщенности : 4:2:0
Битовая глубина : 8 бит
Тип развёртки : Прогрессивная
Метод сжатия : С потерями
Бит/(Пиксели*Кадры) : 0.362
Размер потока : 1,66 Гбайт (81%)
Библиотека кодирования : XviD 1.2.1 (UTC 2008-12-04)
Аудио
Идентификатор : 1
Формат : AC-3
Формат/Информация : Audio Coding 3
Расширение режима : CM (complete main)
Параметр Endianness формата : Big
Идентификатор кодека : 2000
Продолжительность : 2 ч. 4 м.
Вид битрейта : Постоянный
Битрейт : 448 Кбит/сек
Каналы : 6 каналов
Расположение каналов : Front: L C R, Side: L R, LFE
Частота : 48,0 КГц
Битовая глубина : 16 бит
Метод сжатия : С потерями
Размер потока : 400 Мбайт (19%)
Выравнивание : Разделение по промежуткам
Продолжительность промежутка : 42 мс. (1,00 видеокадр)
Время предзагрузки промежутка : 500 мс.
Download / Скачать

Хотите скачать бесплатно? Зарегистрируйтесь на сайте (ссылка на регистрацию). Pirat.ca - самый быстрый торрент трекер в рунете!

Как скачивать  ·   Что такое торрент  ·   Рейтинг и ограничения

Пост 25-Дек-2013 10:17 (спустя 3 часа)

Топик был перенесен из форума Наше кино (Трюм) в форум Новинки (HD|DVD|BD| TV|SAT|PDTV| - Rips)
erchine
 

Romus80

Штурман

Пост 25-Дек-2013 21:30 (спустя 14 часов)

[Q] 

С Наступающим новым годом !
[Профиль]  [ЛС] 

polyk

Флибустьер

Пост 25-Дек-2013 21:33 (спустя 3 минуты)

[Q] 

КАК КИНО???????????????
[Профиль]  [ЛС] 

гришасемечкин

Корсар

1171

Пост 28-Дек-2013 09:30 (спустя 2 дня 11 часов)

[Q] 

Хороший, добрый фильм про жизнь,и про любовь....
Смотреть стоит!!! cn
[Профиль]  [ЛС] 

Selim

Корсар

Пост 28-Дек-2013 18:14 (спустя 8 часов)

[Q] 

Спасибо интересный фильм. Всем качать!!!
[Профиль]  [ЛС] 

pirat.ca1983

Шкипер

Пост 31-Дек-2013 12:33 (спустя 2 дня 18 часов)

[Q] 

Мне понравилось все очень Супер!
[Профиль]  [ЛС] 

sevensv

Легенда

2583

Пост 02-Янв-2014 01:34 (спустя 1 день 13 часов)

[Q] 

Спасибо.... Раздающему респект! Лови бочку
[Профиль]  [ЛС] 

ysdwarf

Канонир

Пост 25-Апр-2014 11:18 (спустя 3 месяца 23 дня)

[Q] 

Мне понравилось. спс огромное
[Профиль]  [ЛС] 

shoroh

Морской Волк

Пост 29-Авг-2015 18:43 (спустя 1 год 4 месяца)

[Q] 

Спасибо!!! !!!!!!!!!!!!!!!!!
[Профиль]  [ЛС] 

Незнайка

Флибустьер

Пост 29-Авг-2015 21:58 (спустя 3 часа)

[Q] 

Спасибо!!!
[Профиль]  [ЛС] 

xzxscorpxzx

Флибустьер

Пост 31-Авг-2015 02:15 (спустя 1 день 4 часа)

[Q] 

можно смотреть Спасибо!!!
[Профиль]  [ЛС] 
Показать сообщения:    
Ответить на тему

Текущее время: Сегодня 18:32

Часовой пояс: GMT + 4



Вы не можете начинать темы
Вы не можете отвечать на сообщения
Вы не можете редактировать свои сообщения
Вы не можете удалять свои сообщения
Вы не можете голосовать в опросах
Вы не можете прикреплять файлы к сообщениям
Вы не можете скачивать файлы

▼ Вниз