ML
     
  Уважаемый Гость!
Вы можете поддержать проект и зарегистрироваться у наших партнеров - онлайн-стратегия MyLands. При регистрации в игре Вы получите код, который сможете активировать после регистрации на pirat.ca и получить 1000 дублонов.

Ваш код:
2fd4e750dd89cae3a36ea360f2b345ccfeb562d3
 
     

Райский уголок (Владимир Дмитриевский) [2013 г., Мелодрама, HDTVRip]

Ответить на тему
 
Автор
Сообщение

Пост 25-Дек-2013 11:31

[Q] 

ara1205

-Райский уголок-- Производство: Россия
Год выпуска: 2013 г.
Жанр: Мелодрама
Продолжительность: 01:29:40-Режиссер: Владимир Дмитриевский-В ролях: Наталия Антонова, Андрей Биланов, Кира Бузникова, Елизавета Зарубина-Описание: В жизни тридцатилетней Жени есть почти все - муж, дети, дом в элитном поселке "Загородный уголок". Но нет самого главного - любви. Неожиданная встреча Встреча с Михаилом заставляет ее переосмыслить всю свою жизнь...- -Качество видео: HDTVRip
Контейнер: AVI
Видео кодек: XviD
Аудио кодек: AC3
Видео: 720x400, 25 fps, 2120 kbps avg, 0.294 bit/pixel
Аудио: 48 kHz, AC3 Dolby Digital, 2/0 (L,R) ch, ~192.00 kbps avg
Cубтитры: отсутствуют-
Общее
Полное имя : C:\Users\Роман\Pictures\Райский уголок\Райский уголок. 2013. HDTVRip. 1.45.avi
Формат : AVI
Формат/Информация : Audio Video Interleave
Размер файла : 1,45 Гбайт
Продолжительность : 1 ч. 29 м.
Общий поток : 2322 Кбит/сек
Программа кодирования : VirtualDubMod 1.5.10.3 | www.virtualdub-fr.org || (build 2550/release)
Библиотека кодирования : VirtualDubMod build 2550/release
Видео
Идентификатор : 0
Формат : MPEG-4 Visual
Профиль формата : Advanced [email protected]
Параметр BVOP формата : 2
Параметр QPel формата : Нет
Параметр GMC формата : Без точки перехода
Параметр матрицы формата : Выборочная
Идентификатор кодека : XVID
Идентификатор кодека/Подсказка : XviD
Продолжительность : 1 ч. 29 м.
Битрейт : 2120 Кбит/сек
Ширина : 720 пикселей
Высота : 400 пикселей
Соотношение сторон : 16:9
Частота кадров : 25,000 кадров/сек
Цветовое пространство : YUV
Субдискретизация насыщенности : 4:2:0
Битовая глубина : 8 бит
Тип развёртки : Прогрессивная
Метод сжатия : С потерями
Бит/(Пиксели*Кадры) : 0.294
Размер потока : 1,33 Гбайт (91%)
Библиотека кодирования : XviD 1.2.1 (UTC 2008-12-04)
Аудио
Идентификатор : 1
Формат : AC-3
Формат/Информация : Audio Coding 3
Расширение режима : CM (complete main)
Параметр Endianness формата : Big
Идентификатор кодека : 2000
Продолжительность : 1 ч. 29 м.
Вид битрейта : Постоянный
Битрейт : 192 Кбит/сек
Каналы : 2 канала
Расположение каналов : Front: L R
Частота : 48,0 КГц
Битовая глубина : 16 бит
Метод сжатия : С потерями
Размер потока : 123 Мбайт (8%)
Выравнивание : Разделение по промежуткам
Продолжительность промежутка : 40 мс. (1,00 видеокадр)
Время предзагрузки промежутка : 500 мс.
-
-
-
Download / Скачать

Хотите скачать бесплатно? Зарегистрируйтесь на сайте (ссылка на регистрацию). Pirat.ca - самый быстрый торрент трекер в рунете!

Как скачивать  ·   Что такое торрент  ·   Рейтинг и ограничения

vovan200976

Флибустьер

Пост 25-Дек-2013 12:24 (спустя 52 минуты)

[Q] 

На один разок фильмец пойдет!!! Лови бочку
[Профиль]  [ЛС] 

UA4HQW

Флибустьер

2528

Пост 20-Мар-2014 13:56 (спустя 2 месяца 26 дней)

[Q] 

Хоть и не люблю мелодрамы , а мне понравился.
Автору респект!!!
[Профиль]  [ЛС] 
Показать сообщения:    
Ответить на тему

Текущее время: Сегодня 14:12

Часовой пояс: GMT + 4



Вы не можете начинать темы
Вы не можете отвечать на сообщения
Вы не можете редактировать свои сообщения
Вы не можете удалять свои сообщения
Вы не можете голосовать в опросах
Вы не можете прикреплять файлы к сообщениям
Вы не можете скачивать файлы

▼ Вниз