ML
     
  Уважаемый Гость!
Вы можете поддержать проект и зарегистрироваться у наших партнеров - онлайн-стратегия MyLands. При регистрации в игре Вы получите код, который сможете активировать после регистрации на pirat.ca и получить 1000 дублонов.

Ваш код:
2a3da67fd641d69eeebb7cb965232435a70eaa24
 
     

Уйти, чтобы остаться (Алина Чеботарёва) [2013 г., Мелодрама, SATRip]

Ответить на тему
 
Автор
Сообщение

Пост 25-Дек-2013 14:52

[Q] 

ara1205

-Уйти, чтобы остаться-- Производство: Россия
Год выпуска: 2013 г.
Жанр: Мелодрама
Продолжительность: 01:32:00-Режиссер: Алина Чеботарёва-В ролях: Любава Грешнова, Андрей Финягин, Александр Устюгов, Владимир Носик, Нина Касторф, Виталина Библив, Анастасия Касилова, Екатерина Кистень, Алексей Смолка, Михаил Жонин-Описание: Где черпают вдохновение писатели? Андрей Градов считает, что тихое местечко с рыбным озером вдали от цивилизации, ему как раз подходит. С одним условием: если не приходится спасать из этого озера утопленниц. А что делать, если "русалка" красива, загадочна и ничего не помнит? А ты отрезан от большого мира непрекращающимся проливным дождем и размытыми дорогами? Андрею долго ответ искать не надо. Как истинный писатель, он превращает спасенную красавицу в свою музу.
Но рано или поздно любой отпуск, как и дождь, заканчивается. И настает время возвращаться в собственную, а не выдуманную тобой, историю. И часть этой истории – твое прошлое. А также тайны прошлого твоей музы.По силам ли Андрею разгадать эти тайны? Найдется ли в его настоящем место для загадочной нимфы? Найдет ли она себя рядом с ним?- -Качество видео: SATRip
Контейнер: AVI
Видео кодек: XviD
Аудио кодек: MP3
Видео: 704x368, 25.00fps, 2068 Кбит/сек, 0.319 bit/pixel
Аудио: 48000 Hz, stereo, 192 Кбит/сек
Cубтитры: отсутствуют-
Общее
Полное имя : C:\Users\Роман\Pictures\Уйти, чтобы остаться\Уйти, чтобы остаться.2013.XviD.SATRip.by.simka_1500 МБ.avi
Формат : AVI
Формат/Информация : Audio Video Interleave
Размер файла : 1,46 Гбайт
Продолжительность : 1 ч. 31 м.
Общий поток : 2270 Кбит/сек
Программа кодирования : VirtualDubMod 1.5.10.3 | www.virtualdub-fr.org || (build 2550/release)
Библиотека кодирования : VirtualDubMod build 2550/release
Видео
Идентификатор : 0
Формат : MPEG-4 Visual
Профиль формата : Advanced [email protected]
Параметр BVOP формата : 1
Параметр QPel формата : Нет
Параметр GMC формата : Без точки перехода
Параметр матрицы формата : Default (H.263)
Идентификатор кодека : XVID
Идентификатор кодека/Подсказка : XviD
Продолжительность : 1 ч. 31 м.
Битрейт : 2068 Кбит/сек
Ширина : 704 пикселя
Высота : 368 пикселей
Соотношение сторон : 1,913
Частота кадров : 25,000 кадров/сек
Цветовое пространство : YUV
Субдискретизация насыщенности : 4:2:0
Битовая глубина : 8 бит
Тип развёртки : Прогрессивная
Метод сжатия : С потерями
Бит/(Пиксели*Кадры) : 0.319
Размер потока : 1,33 Гбайт (91%)
Библиотека кодирования : XviD 1.2.1 (UTC 2008-12-04)
Аудио
Идентификатор : 1
Формат : MPEG Audio
Версия формата : Version 1
Профиль формата : Layer 3
Режим : Joint stereo
Расширение режима : MS Stereo
Идентификатор кодека : 55
Идентификатор кодека/Подсказка : MP3
Продолжительность : 1 ч. 31 м.
Вид битрейта : Постоянный
Битрейт : 192 Кбит/сек
Каналы : 2 канала
Частота : 48,0 КГц
Метод сжатия : С потерями
Размер потока : 126 Мбайт (8%)
Выравнивание : Соединение по промежуткам
Продолжительность промежутка : 40 мс. (1,00 видеокадр)
Время предзагрузки промежутка : 504 мс.
Библиотека кодирования : LAME3.99r
Настройки программы : -m j -V 4 -q 2 -lowpass 18.6 -b 192
-
-
-
Download / Скачать

Хотите скачать бесплатно? Зарегистрируйтесь на сайте (ссылка на регистрацию). Pirat.ca - самый быстрый торрент трекер в рунете!

Как скачивать  ·   Что такое торрент  ·   Рейтинг и ограничения

Romus80

Штурман

Пост 25-Дек-2013 21:28 (спустя 6 часов)

[Q] 

С Наступающим!
[Профиль]  [ЛС] 
Показать сообщения:    
Ответить на тему

Текущее время: Сегодня 01:12

Часовой пояс: GMT + 4



Вы не можете начинать темы
Вы не можете отвечать на сообщения
Вы не можете редактировать свои сообщения
Вы не можете удалять свои сообщения
Вы не можете голосовать в опросах
Вы не можете прикреплять файлы к сообщениям
Вы не можете скачивать файлы

▼ Вниз