ML
     
  Уважаемый Гость!
Вы можете поддержать проект и зарегистрироваться у наших партнеров - онлайн-стратегия MyLands. При регистрации в игре Вы получите код, который сможете активировать после регистрации на pirat.ca и получить 1000 дублонов.

Ваш код:
bb0cb47ee786a33f751af5a500dd264c9487bfac
 
     

32 декабря (Александр Муратов) [2004 г., мелодрама, комедия, DVDRip] [Две серии]

Ответить на тему
 
Автор
Сообщение

Пост 25-Дек-2013 20:42

[Q] 

valeryz777

Гроза морей

-32 декабря / Две серии-- Производство: Россия
Режиссер: Александр Муратов
Жанр: мелодрама, комедия
Год выпуска: 2004 г.
Продолжительность: 01:40:02
Российская премьера: 31 декабря 2004
Дата выхода DVD: 23 декабря 2004
В ролях: Андрей Мягков, Армен Джигарханян, Ада Роговцева, Светлана Антонова, Юрий Беляев, Алексей Чадов, Евгения Добровольская, Николай Караченцов, Владимир Меньшов, Виктор Раков-Описание: В уютном загородном пансионе для пожилых людей трое неразлучных приятелей — Сергей Петрович, отец помощника самого премьер-министра, отставной гипнотизер Карен Завенович и очаровательная Маргарита Николаевна готовятся к встрече Нового года.
Они немного грустят, подшучивают друг над другом и пишут письма Санта-Клаусу (его легче застать трезвым, чем Деда Мороза). Но случается невероятное: странным образом к Карену Завеновичу возвращается дар Калиостро. Тут-то и начинают происходить самые неожиданные и невероятные события… В канун праздника, когда возможны любые чудеса и в воздухе витает волшебство, трое друзей загадывают самое сокровенное желание — стать на одну ночь молодыми.
И когда с последним ударом часов их желание неожиданно исполняется, трое друзей получают невероятный шанс сделать то, о чем они мечтали всю жизнь…-КиноПоиск
Качество видео: DVDRip
Контейнер: AVI
Видео кодек: XviD
Аудио кодек: AC3
Видео: 640x384 (1.67:1), ~1627 kbps, 0.28 bit/pixel, 23.976 fps
Аудио: ~448 kbps, 3/2 (L,C,R,l,r) + LFE ch, 48 kHz
Cубтитры: отсутствуют
Общее
Полное имя 32.Dekabrya\32.Dekabrya_01.avi
Формат : AVI
Формат/Информация : Audio Video Interleave
Размер файла : 772 Мбайт
Продолжительность : 51 м.
Общий поток : 2085 Кбит/сек
Название фильма : 3
Программа кодирования : V
Правообладатель : O
Видео
Идентификатор : 0
Формат : MPEG-4 Visual
Профиль формата : Advanced [email protected]
Параметр BVOP формата : 1
Параметр QPel формата : Нет
Параметр GMC формата : Без точки перехода
Параметр матрицы формата : Выборочная
Идентификатор кодека : XVID
Идентификатор кодека/Подсказка : XviD
Продолжительность : 51 м.
Битрейт : 1628 Кбит/сек
Ширина : 640 пикселей
Высота : 384 пикселя
Соотношение сторон : 1,667
Частота кадров : 23,976 кадра/сек
Цветовое пространство : YUV
Субдискретизация насыщенности : 4:2:0
Битовая глубина : 8 бит
Тип развёртки : Прогрессивная
Метод сжатия : С потерями
Бит/(Пиксели*Кадры) : 0.276
Размер потока : 602 Мбайт (78%)
Библиотека кодирования : XviD 65
Аудио
Идентификатор : 1
Формат : AC-3
Формат/Информация : Audio Coding 3
Расширение режима : CM (complete main)
Параметр Endianness формата : Big
Идентификатор кодека : 2000
Продолжительность : 51 м.
Вид битрейта : Постоянный
Битрейт : 448 Кбит/сек
Каналы : 6 каналов
Расположение каналов : Front: L C R, Side: L R, LFE
Частота : 48,0 КГц
Битовая глубина : 16 бит
Метод сжатия : С потерями
Размер потока : 166 Мбайт (21%)
Выравнивание : Разделение по промежуткам
Продолжительность промежутка : 42 мс. (1,00 видеокадр)
Время предзагрузки промежутка : 500 мс.
----------------------------------------------------------------------------------------
Общее
Полное имя 32.Dekabrya\32.Dekabrya_02.avi
Формат : AVI
Формат/Информация : Audio Video Interleave
Размер файла : 722 Мбайт
Продолжительность : 48 м.
Общий поток : 2085 Кбит/сек
Название фильма : 3
Программа кодирования : V
Правообладатель : O
Видео
Идентификатор : 0
Формат : MPEG-4 Visual
Профиль формата : Advanced [email protected]
Параметр BVOP формата : 1
Параметр QPel формата : Нет
Параметр GMC формата : Без точки перехода
Параметр матрицы формата : Выборочная
Идентификатор кодека : XVID
Идентификатор кодека/Подсказка : XviD
Продолжительность : 48 м.
Битрейт : 1628 Кбит/сек
Ширина : 640 пикселей
Высота : 384 пикселя
Соотношение сторон : 1,667
Частота кадров : 23,976 кадра/сек
Цветовое пространство : YUV
Субдискретизация насыщенности : 4:2:0
Битовая глубина : 8 бит
Тип развёртки : Прогрессивная
Метод сжатия : С потерями
Бит/(Пиксели*Кадры) : 0.276
Размер потока : 564 Мбайт (78%)
Библиотека кодирования : XviD 65
Аудио
Идентификатор : 1
Формат : AC-3
Формат/Информация : Audio Coding 3
Расширение режима : CM (complete main)
Параметр Endianness формата : Big
Идентификатор кодека : 2000
Продолжительность : 48 м.
Вид битрейта : Постоянный
Битрейт : 448 Кбит/сек
Каналы : 6 каналов
Расположение каналов : Front: L C R, Side: L R, LFE
Частота : 48,0 КГц
Битовая глубина : 16 бит
Метод сжатия : С потерями
Размер потока : 155 Мбайт (21%)
Выравнивание : Разделение по промежуткам
Продолжительность промежутка : 42 мс. (1,00 видеокадр)
Время предзагрузки промежутка : 500 мс.
Внимание! Раздача ведется путем веб-сидирования. Подробнее здесь
Download / Скачать

Хотите скачать бесплатно? Зарегистрируйтесь на сайте (ссылка на регистрацию). Pirat.ca - самый быстрый торрент трекер в рунете!

Как скачивать  ·   Что такое торрент  ·   Рейтинг и ограничения



Последний раз редактировалось: valeryz777 (2013-12-26 17:56), всего редактировалось 6 раз(а)

valeryz777 ®

Гроза морей

896

Пост 26-Дек-2013 11:27 (спустя 14 часов)

[Q] 

Исправлено! dk Скачивайте! Какая была скорость? Отпишитесь! dc

_________________
«Festina lente» что означает «Поспешай медленно»
[Профиль]  [ЛС] 

Пост 26-Дек-2013 18:10 (спустя 6 часов)

Топик был перенесен из форума Наше кино (Трюм) в форум Российские фильмы
erchine
 

valeryz777 ®

Гроза морей

896

Пост 26-Дек-2013 18:13 (спустя 6 часов)

[Q] 

467221Доброго времени суток! Торрент-файл добавил. dg Сделал первый раз Веб-раздачу, т.к. у меня скорость интернета маленькая. Отпишитесь - какая скорость получилась, плиз! "Полного источника не было: Никогда" - это так и должно быть!!! Качайте! cx
Внимание! Торрент-файл перезалит на обычную раздачу.

_________________
«Festina lente» что означает «Поспешай медленно»
[Профиль]  [ЛС] 

valeryz777 ®

Гроза морей

896

Пост 31-Дек-2013 17:28 (спустя 4 дня)

[Q] 

С Новым годом! С новым счастьем!!! Урааа!!! Пиратка рулит!

_________________
«Festina lente» что означает «Поспешай медленно»
[Профиль]  [ЛС] 

Тошик

Морской Волк

Пост 01-Фев-2014 23:49 (спустя 1 месяц 1 день)

[Q] 

Спасибо!!! Автору респект!!!
[Профиль]  [ЛС] 

valeryz777 ®

Гроза морей

896

Пост 12-Фев-2014 20:38 (спустя 10 дней)

[Q] 

Где же все скачавшие?! АУ!!! Эй, вернитесь на раздачу...

_________________
«Festina lente» что означает «Поспешай медленно»
[Профиль]  [ЛС] 

valeryz777 ®

Гроза морей

896

Пост 13-Фев-2014 10:08 (спустя 13 часов)

[Q] 

Ребята! Выручайте! Веб-сид почему-то не работает! Поддержите раздачу! Плиз!

_________________
«Festina lente» что означает «Поспешай медленно»
[Профиль]  [ЛС] 

valeryz777 ®

Гроза морей

896

Пост 23-Фев-2014 07:04 (спустя 9 дней)

[Q] 

С Днём Защитника Отечества!!!!! Ура!!! bp Ура!!

_________________
«Festina lente» что означает «Поспешай медленно»
[Профиль]  [ЛС] 

valeryz777 ®

Гроза морей

896

Пост 23-Фев-2015 12:48 (спустя 1 год)

[Q] 


_________________
«Festina lente» что означает «Поспешай медленно»
[Профиль]  [ЛС] 

valeryz777 ®

Гроза морей

896

Пост 08-Мар-2015 05:48 (спустя 12 дней)

[Q] 


_________________
«Festina lente» что означает «Поспешай медленно»
[Профиль]  [ЛС] 

valeryz777 ®

Гроза морей

896

Пост 23-Фев-2016 06:35 (спустя 11 месяцев 15 дней)

[Q] 


_________________
«Festina lente» что означает «Поспешай медленно»
[Профиль]  [ЛС] 

valeryz777 ®

Гроза морей

896

Пост 08-Мар-2016 09:10 (спустя 14 дней)

[Q] 


_________________
«Festina lente» что означает «Поспешай медленно»
[Профиль]  [ЛС] 
Показать сообщения:    
Ответить на тему

Текущее время: Сегодня 02:18

Часовой пояс: GMT + 4



Вы не можете начинать темы
Вы не можете отвечать на сообщения
Вы не можете редактировать свои сообщения
Вы не можете удалять свои сообщения
Вы не можете голосовать в опросах
Вы не можете прикреплять файлы к сообщениям
Вы не можете скачивать файлы

▼ Вниз