ML
     
  Уважаемый Гость!
Вы можете поддержать проект и зарегистрироваться у наших партнеров - онлайн-стратегия MyLands. При регистрации в игре Вы получите код, который сможете активировать после регистрации на pirat.ca и получить 1000 дублонов.

Ваш код:
93dbf9fbdfa06c41d3b5a2c3921149ba36168c41
 
     

Доктор (Владимир Панков) [2012 г., драма, DVDRip][internal release]

Ответить на тему
 
Автор
Сообщение

Пост 30-Дек-2013 16:37

[Q] 

aleksey99

--Доктор-- Производство: Россия, Мосфильм, Киностудия Жанр
Режиссер: Владимир Панков
Жанр: драма
Год выпуска: 2012 г.
Продолжительность: 01:35:02--Российская премьера: 16 августа 2012
Дата выхода DVD: 3 декабря 2013, «Lizard Cinema Trade»--В ролях: Андрей Заводюк, Александр Кудрявцев, Сергей Родюков, Алиса Эстрина, Татьяна Кличановская, Павел Акимкин, Ольга Герчакова, Сергей Агафонов, Людмила Шергина, Инга Сметанина, Алина Ольшанская, Алексей Багдасаров, Дмитрий Журавлев, Анастасия Сычева--Описание: Главный герой — хирург Андрей. Он прошел путь от молодого врача до профессионала. На его долю выпало преодоление чудовищных реалий российской действительности: работа в отсутствие медикаментов и аппаратуры, когда полагаться можно только на интуицию. Его жизнь — ежедневный подвиг спасения человеческих жизней в нечеловеческих условиях. Впрочем, сам он свою жизнь подвигом не считает: он просто выполняет свою работу…-- --Качество видео: DVDRip
Контейнер: AVI
Видео кодек: XviD
Аудио кодек: AC3
Видео: 720x400 (1.80:1), 25 fps, XviD build 47 ~1736 kbps avg, 0.24 bit/pixel
Аудио: 48 kHz, AC3 Dolby Digital, 3/2 (L,C,R,l,r) + LFE ch, ~448 kbps
Cубтитры: Отсутствуют
Общее
Полное имя : D:\Кодировка\Doktor.2012.DVDRip_[pirat.ca].avi
Формат : AVI
Формат/Информация : Audio Video Interleave
Размер файла : 1,46 Гбайт
Продолжительность : 1 ч. 35 м.
Общий поток : 2195 Кбит/сек
Программа кодирования : VirtualDubMod 1.5.10.2 (build 2540/release)
Библиотека кодирования : VirtualDubMod build 2540/release
Видео
Идентификатор : 0
Формат : MPEG-4 Visual
Профиль формата : Advanced [email protected]
Параметр BVOP формата : 2
Параметр QPel формата : Нет
Параметр GMC формата : Без точки перехода
Параметр матрицы формата : Default (MPEG)
Идентификатор кодека : XVID
Идентификатор кодека/Подсказка : XviD
Продолжительность : 1 ч. 35 м.
Битрейт : 1737 Кбит/сек
Ширина : 720 пикселей
Высота : 400 пикселей
Соотношение сторон : 16:9
Частота кадров : 25,000 кадров/сек
Цветовое пространство : YUV
Субдискретизация насыщенности : 4:2:0
Битовая глубина : 8 бит
Тип развёртки : Прогрессивная
Метод сжатия : С потерями
Бит/(Пиксели*Кадры) : 0.241
Размер потока : 1,15 Гбайт (79%)
Библиотека кодирования : XviD 1.2.0.dev47 (UTC 2006-11-01)
Аудио
Идентификатор : 1
Формат : AC-3
Формат/Информация : Audio Coding 3
Расширение режима : CM (complete main)
Параметр Endianness формата : Big
Идентификатор кодека : 2000
Продолжительность : 1 ч. 35 м.
Вид битрейта : Постоянный
Битрейт : 448 Кбит/сек
Каналы : 6 каналов
Расположение каналов : Front: L C R, Side: L R, LFE
Частота : 48,0 КГц
Битовая глубина : 16 бит
Метод сжатия : С потерями
Размер потока : 305 Мбайт (20%)
Выравнивание : Разделение по промежуткам
Продолжительность промежутка : 40 мс. (1,00 видеокадр)
Время предзагрузки промежутка : 500 мс.
Download / Скачать

Хотите скачать бесплатно? Зарегистрируйтесь на сайте (ссылка на регистрацию). Pirat.ca - самый быстрый торрент трекер в рунете!

Как скачивать  ·   Что такое торрент  ·   Рейтинг и ограничения

Пост 30-Дек-2013 18:19 (спустя 1 час 42 минуты)

Топик был перенесен из форума Наше кино (Трюм) в форум Новинки (HD|DVD|BD| TV|SAT|PDTV| - Rips)
kugesan
 

Jek@

Легенда

Пост 31-Дек-2013 02:47 (спустя 10 часов)

[Q] 

Спасибо!!! .
[Профиль]  [ЛС] 

rashchektai

Лоцман

Пост 01-Янв-2014 18:16 (спустя 1 день 15 часов)

[Q] 

Спасибо. ждал.
[Профиль]  [ЛС] 

Alex Yz

Гроза морей

Пост 02-Янв-2014 04:10 (спустя 9 часов)

[Q] 

Спасибо. Вы лучшие!
[Профиль]  [ЛС] 

a_kse

Лоцман

Пост 05-Янв-2014 16:21 (спустя 3 дня)

[Q] 

вы издеваетесь, да?? Это горячечный бред героинового наркомана, это "винтовый" мьюзикл, это срыв башни. ЭТО МАСТ СИ!!!!!!! только смотреть трезвым не в большой компании, а то было засрет все впечатление от фильма.
[Профиль]  [ЛС] 

sevensv

Легенда

2588

Пост 05-Янв-2014 23:12 (спустя 6 часов)

[Q] 

Спасибо!!! Супер!
[Профиль]  [ЛС] 

mazur1981

Шкипер

Пост 06-Янв-2014 19:01 (спустя 19 часов)

[Q] 

Сценарист и режиссер однозначно сидят на тяжелых наркотиках. Это просто пипец.... Редкостное гэ... Но заставил себя досмотреть до конца. Если убрать всю наркоманскую шелуху вроде танцев с бубнами и истеричного вокала и снять фильм в классическом виде - думаю было бы гораздо интереснее. До 18 и после 60 не смотреть, чердак сорвет напрочь от такой мути
[Профиль]  [ЛС] 

polozm

Легенда

Пост 06-Янв-2014 20:21 (спустя 1 час 20 минут)

[Q] 

Спасибо!!!Фильм понравился.Только "песни" очень портили впечатление и раздражали...

_________________
mac mini -2.0 GHz Intel Core i7/ 8 GB DDR3. /Intel HD 3000(512mb)OS X 10.9 Mavericks
[Профиль]  [ЛС] 

Дмитров

Морской Волк

Пост 20-Янв-2014 00:28 (спустя 13 дней)

[Q] 

Потрясающая картина о героической работе российского хирурга в обычной сельской больнице, о всесторонней и всеобъемлещей поддержки медицины со стороны государства и чиновников от страховой медицины.Ввиду того, что медицинские работники хорошо знакомы с такой заботой,им смотреть данный фильм будет неинтересно! Рекомендую к обязательному просмотру остальной категории граждан и потенциальным пациентам.
Добавлено спустя 2 минуты 22 секунды:
P.S. Мне одному показалось, что главгерой напоминает Джима Кэрри?!
[Профиль]  [ЛС] 

Scorpion7474

Флибустьер

Пост 18-Мар-2014 12:35 (спустя 1 месяц 29 дней)

[Q] 

Спасибо!!! Лови бочку
[Профиль]  [ЛС] 
Показать сообщения:    
Ответить на тему

Текущее время: Сегодня 20:19

Часовой пояс: GMT + 4



Вы не можете начинать темы
Вы не можете отвечать на сообщения
Вы не можете редактировать свои сообщения
Вы не можете удалять свои сообщения
Вы не можете голосовать в опросах
Вы не можете прикреплять файлы к сообщениям
Вы не можете скачивать файлы

▼ Вниз