ML
     
  Уважаемый Гость!
Вы можете поддержать проект и зарегистрироваться у наших партнеров - онлайн-стратегия MyLands. При регистрации в игре Вы получите код, который сможете активировать после регистрации на pirat.ca и получить 1000 дублонов.

Ваш код:
1a5b0a965618b2c406d4279ec9924ee6282c60cf
 
     

Отдать концы (Таисия Игуменцева) [2013 г., драма, комедия, DVDRip][Лицензия]

Ответить на тему
 
Автор
Сообщение

Пост 01-Янв-2014 12:04

[Q] 

aleksey99

--Отдать концы--«Конец света. Продолжение следует...»-- Производство: Россия
Режиссер: Таисия Игуменцева
Жанр: драма, комедия
Год выпуска: 2013 г.
Продолжительность: 01:36:35--Мировая премьера: 19 мая 2013
Российская премьера: 24 октября 2013, «Другое кино»
Релиз на DVD: 16 декабря 2013, «Новый Диск»--В ролях: Сергей Аброскин, Максим Виторган, Ирина Денисова, Анна Рудь, Ёла Санько, Юрис Лауциньш, Алина Сергеева, Дмитрий Куличков--Описание: Добрая сказка о забавных обитателях одной маленькой деревушки на краю Земли. Поверив в то, что через сутки наступит конец света, каждый из них наконец-то отваживается сделать то, на что никогда не решался. Апокалипсис сдвигает их с привычных мест, но… так и не происходит. И приходится милым чудакам заново учиться любить, драться и выживать…-- --Качество видео: DVDRip
Контейнер: AVI
Видео кодек: XviD
Аудио кодек: AC3
Видео: 720x400 (1.80:1), 25 fps, XviD build 50 ~1705 kbps avg, 0.24 bit/pixel
Аудио: 48 kHz, AC3 Dolby Digital, 3/2 (L,C,R,l,r) + LFE ch, ~448 kbps
Cубтитры: отсутствуют
Общее
Полное имя : H:\Torrent2\Otdatj.koncy.2013.O.DVDRip.1.46Gb_[pirat.ca].avi
Формат : AVI
Формат/Информация : Audio Video Interleave
Размер файла : 1,46 Гбайт
Продолжительность : 1 ч. 36 м.
Общий поток : 2164 Кбит/сек
Программа кодирования : VirtualDubMod 1.5.10.3 | www.virtualdub-fr.org || (build 2550/release)
Библиотека кодирования : VirtualDubMod build 2550/release
Видео
Идентификатор : 0
Формат : MPEG-4 Visual
Профиль формата : Advanced [email protected]
Параметр BVOP формата : 2
Параметр QPel формата : Нет
Параметр GMC формата : Без точки перехода
Параметр матрицы формата : Default (MPEG)
Идентификатор кодека : XVID
Идентификатор кодека/Подсказка : XviD
Продолжительность : 1 ч. 36 м.
Битрейт : 1706 Кбит/сек
Ширина : 720 пикселей
Высота : 400 пикселей
Соотношение сторон : 16:9
Частота кадров : 25,000 кадров/сек
Цветовое пространство : YUV
Субдискретизация насыщенности : 4:2:0
Битовая глубина : 8 бит
Тип развёртки : Прогрессивная
Метод сжатия : С потерями
Бит/(Пиксели*Кадры) : 0.237
Размер потока : 1,15 Гбайт (79%)
Библиотека кодирования : XviD 1.2.1 (UTC 2008-12-04)
Аудио
Идентификатор : 1
Формат : AC-3
Формат/Информация : Audio Coding 3
Расширение режима : CM (complete main)
Параметр Endianness формата : Big
Идентификатор кодека : 2000
Продолжительность : 1 ч. 36 м.
Вид битрейта : Постоянный
Битрейт : 448 Кбит/сек
Каналы : 6 каналов
Расположение каналов : Front: L C R, Side: L R, LFE
Частота : 48,0 КГц
Битовая глубина : 16 бит
Метод сжатия : С потерями
Размер потока : 310 Мбайт (21%)
Выравнивание : Разделение по промежуткам
Продолжительность промежутка : 40 мс. (1,00 видеокадр)
Время предзагрузки промежутка : 500 мс.
Трейлер
Download / Скачать

Хотите скачать бесплатно? Зарегистрируйтесь на сайте (ссылка на регистрацию). Pirat.ca - самый быстрый торрент трекер в рунете!

Как скачивать  ·   Что такое торрент  ·   Рейтинг и ограничения

aleksey99 ®

282331

Пост 01-Янв-2014 12:06 (спустя 2 минуты)

[Q] 


_________________

[Профиль]  [ЛС] 

Пост 01-Янв-2014 12:12 (спустя 5 минут)

Топик был перенесен из форума Наше кино (Трюм) в форум Новинки (HD|DVD|BD| TV|SAT|PDTV| - Rips)
ara1205
 

sergokov

Флибустьер

754

Пост 02-Янв-2014 15:58 (спустя 1 день 3 часа)

[Q] 

Разок можно посмотреть,местами посмеятся. Спасибо!!!
[Профиль]  [ЛС] 

Кротанг

Юнга

Пост 13-Янв-2014 16:56 (спустя 11 дней)

[Q] 

Весьма милый да и смешной немножко. Спасибо! Автору респект!!!
[Профиль]  [ЛС] 

Jek@

Легенда

Пост 15-Янв-2014 04:46 (спустя 1 день 11 часов)

[Q] 

Спасибо!!! .
[Профиль]  [ЛС] 

UA4HQW

Флибустьер

2528

Пост 15-Янв-2014 08:01 (спустя 3 часа)

[Q] 

Тупой фильм. Мне не понравился.
Автору респект!!!
[Профиль]  [ЛС] 

platon18

Гроза морей

Пост 15-Янв-2014 12:33 (спустя 4 часа)

[Q] 

чет не понравился
[Профиль]  [ЛС] 

hottyabych

Лоцман

Пост 15-Янв-2014 17:04 (спустя 4 часа)

[Q] 

Отличное кино про любовь и смысл жизни.
[Профиль]  [ЛС] 

Dysy

Морской Волк

Пост 17-Янв-2014 16:18 (спустя 1 день 23 часа)

[Q] 

На любителя Всем качать!!! вот так как то
[Профиль]  [ЛС] 

mr_andron

Лоцман

Пост 19-Янв-2014 03:33 (спустя 1 день 11 часов)

[Q] 

По мне - так полный бред, еле досмотрел...
[Профиль]  [ЛС] 

лысый 9999

Морской Волк

Пост 19-Янв-2014 11:24 (спустя 7 часов)

[Q] 

бред Отказать увы
[Профиль]  [ЛС] 

Scorpion7474

Флибустьер

Пост 06-Мар-2014 12:36 (спустя 1 месяц 18 дней)

[Q] 

а звук как народ
[Профиль]  [ЛС] 

Scorpion7474

Флибустьер

Пост 07-Апр-2014 13:47 (спустя 1 месяц 1 день)

[Q] 

хренотень полная
[Профиль]  [ЛС] 

dilov2007

Шкипер

Пост 11-Апр-2014 16:19 (спустя 4 дня)

[Q] 

Фильм конечно так себе.
Но автору спасибо за труды Спасибо!!!

_________________
Не суди сам! И не судим будешь.
[Профиль]  [ЛС] 
Показать сообщения:    
Ответить на тему

Текущее время: Сегодня 23:48

Часовой пояс: GMT + 4



Вы не можете начинать темы
Вы не можете отвечать на сообщения
Вы не можете редактировать свои сообщения
Вы не можете удалять свои сообщения
Вы не можете голосовать в опросах
Вы не можете прикреплять файлы к сообщениям
Вы не можете скачивать файлы

▼ Вниз