ML
     
  Уважаемый Гость!
Вы можете поддержать проект и зарегистрироваться у наших партнеров - онлайн-стратегия MyLands. При регистрации в игре Вы получите код, который сможете активировать после регистрации на pirat.ca и получить 1000 дублонов.

Ваш код:
2fd4e750dd89cae3a36ea360f2b345ccfeb562d3
 
     

Алмаз в шоколаде (Артур Богатов) [2013 г., комедия, SATRip]

Ответить на тему
 
Автор
Сообщение

Пост 04-Янв-2014 11:37

[Q] 

ara1205

-Алмаз в шоколаде-- Производство: Россия
Год выпуска: 2013 г.
Жанр: комедия
Продолжительность: 01:31:08-Режиссер: Артур Богатов-В ролях: Иван Стебунов, Екатерина Олькина, Иван Руденко, Александр Касаткин, Александр Ким, Сергей Никоненко, Станислав Любшин, Юлия Такшина, Александр Робак-Описание: Дмитрий Савичев — востребованный шоумен, который должен был провести громкое мероприятие в одном из известных клубов столицы. Он мастер своего дела, но также мастерски умудрился вляпаться в неприятности, оказавшись не в то время, не в том месте.
Главный герой стал случайным свидетелем большого ограбления. Дмитрий, абсолютно случайно, оказывается в мешке Деда мороза, который в мешке спрятал драгоценные камни стоимостью в миллионы рублей. Драгоценности находились в коробке из под шоколада.
Казалось бы, идеальное прикрытие в новый год, но следователей так легко не проведешь. Они идут за преступниками по пятам, а Дмитрий стал отличной приманкой…- -Качество видео: SATRip
Контейнер: AVI
Видео кодек: XviD
Аудио кодек: AC3
Видео: 720x400, 25 fps, 2094 kbps avg, 0.29 bit/pixel
Аудио: 48 kHz, AC3 Dolby Digital, 2/0 (L,R) ch, ~192 kbps
Cубтитры: отсутствуют-
Общее
Полное имя : C:\Users\Роман\Pictures\Алмаз в шоколаде\Алмаз в шоколаде_2013_SATRip_by_SANNYa.avi
Формат : AVI
Формат/Информация : Audio Video Interleave
Размер файла : 1,46 Гбайт
Продолжительность : 1 ч. 31 м.
Общий поток : 2296 Кбит/сек
Программа кодирования : VirtualDubMod 1.5.10.3 | www.virtualdub-fr.org || (build 2550/release)
Библиотека кодирования : VirtualDubMod build 2550/release
Видео
Идентификатор : 0
Формат : MPEG-4 Visual
Профиль формата : Advanced [email protected]
Параметр BVOP формата : 1
Параметр QPel формата : Нет
Параметр GMC формата : Без точки перехода
Параметр матрицы формата : Выборочная
Идентификатор кодека : XVID
Идентификатор кодека/Подсказка : XviD
Продолжительность : 1 ч. 31 м.
Битрейт : 2095 Кбит/сек
Ширина : 720 пикселей
Высота : 400 пикселей
Соотношение сторон : 16:9
Частота кадров : 25,000 кадров/сек
Цветовое пространство : YUV
Субдискретизация насыщенности : 4:2:0
Битовая глубина : 8 бит
Тип развёртки : Прогрессивная
Метод сжатия : С потерями
Бит/(Пиксели*Кадры) : 0.291
Размер потока : 1,33 Гбайт (91%)
Библиотека кодирования : XviD 73
Аудио
Идентификатор : 1
Формат : AC-3
Формат/Информация : Audio Coding 3
Расширение режима : CM (complete main)
Параметр Endianness формата : Big
Идентификатор кодека : 2000
Продолжительность : 1 ч. 31 м.
Вид битрейта : Постоянный
Битрейт : 192 Кбит/сек
Каналы : 2 канала
Расположение каналов : Front: L R
Частота : 48,0 КГц
Битовая глубина : 16 бит
Метод сжатия : С потерями
Размер потока : 125 Мбайт (8%)
Выравнивание : Разделение по промежуткам
Продолжительность промежутка : 40 мс. (1,00 видеокадр)
Время предзагрузки промежутка : 500 мс.
-
-
-
Download / Скачать

Хотите скачать бесплатно? Зарегистрируйтесь на сайте (ссылка на регистрацию). Pirat.ca - самый быстрый торрент трекер в рунете!

Как скачивать  ·   Что такое торрент  ·   Рейтинг и ограничения

Lana38

Корсар

Пост 04-Янв-2014 22:05 (спустя 10 часов)

[Q] 

Спасибо раздающему )
[Профиль]  [ЛС] 

mrdim-CHEHOV

Флибустьер

Пост 05-Янв-2014 23:36 (спустя 1 день 1 час)

[Q] 

Автору респект!!! глянем...

_________________
Все будет не так, как мы решим. Все будет тогда, когда мы решимся.
[Профиль]  [ЛС] 

KoSkud

Флибустьер

Пост 07-Янв-2014 19:09 (спустя 1 день 19 часов)

[Q] 

на первом скрине баба даже накрашенная-страшная ai не хотел бы я быть её зеркалом,особенно с утра

_________________
Учись-играя,играя-учись
[Профиль]  [ЛС] 

UA4HQW

Флибустьер

2528

Пост 09-Янв-2014 10:09 (спустя 1 день 15 часов)

[Q] 

Нормальный , смотреть можно .
Мне понравилось Автору респект!!!
[Профиль]  [ЛС] 

Кротанг

Юнга

Пост 13-Янв-2014 16:50 (спустя 4 дня)

[Q] 

Спасибо. Понравилось.
[Профиль]  [ЛС] 

Евгений Чередников

Морской Волк

Пост 13-Фев-2014 21:04 (спустя 1 месяц)

[Q] 

anime8 Раздающему респект!

_________________
[Профиль]  [ЛС] 
Показать сообщения:    
Ответить на тему

Текущее время: Сегодня 14:14

Часовой пояс: GMT + 4



Вы не можете начинать темы
Вы не можете отвечать на сообщения
Вы не можете редактировать свои сообщения
Вы не можете удалять свои сообщения
Вы не можете голосовать в опросах
Вы не можете прикреплять файлы к сообщениям
Вы не можете скачивать файлы

▼ Вниз