ML
     
  Уважаемый Гость!
Вы можете поддержать проект и зарегистрироваться у наших партнеров - онлайн-стратегия MyLands. При регистрации в игре Вы получите код, который сможете активировать после регистрации на pirat.ca и получить 1000 дублонов.

Ваш код:
2fd4e750dd89cae3a36ea360f2b345ccfeb562d3
 
     

Полярный рейс (Сергей Чекалов) [2013 г., комедия, DVDRip]

Ответить на тему
 
Автор
Сообщение

Пост 06-Янв-2014 18:11

[Q] 

aleksey99

--Полярный рейс--«Ваш билет в новый год!»-- Производство: Украина
Режиссер: Сергей Чекалов
Жанр: комедия
Год выпуска: 2013 г.
Продолжительность: 01:28:09--Мировая премьера: 12 декабря 2013
Премьера (РФ): 12 декабря 2013, «Top Film Distribution»
Релиз на DVD: 26 декабря 2013, «Новый Диск»--В ролях: Егор Бероев, Юлия Снигирь, Дмитрий Нагиев, Татьяна Орлова, Анна Семенович, Михаил Тарабукин, Кирилл Жандаров, Юлия Куварзина, Поля Полякова, Юлия Галкина--Описание: Иногда расстояние, карьера и работа разлучают людей навсегда. А по-настоящему родных — только на миг, сколько бы он не длился. Может случиться, что симпатичный пушистый амулет сведет вместе героев и заставит одних проявить юмор, благородство, преданность и взаимопомощь, других — быть просто смешными, глупыми и опасными… Пройдя через разлуку, череду преград, испытаний и искушений, волшебство любви должно победить!-- --Трейлер--Качество видео: DVDRip
Контейнер: AVI
Видео кодек: XviD
Аудио кодек: AC3
Видео: 720x320 (2.25:1), 25 fps, XviD build 50 ~1761 kbps avg, 0.30 bit/pixel
Аудио: 48 kHz, AC3 Dolby Digital, 3/2 (L,C,R,l,r) + LFE ch, ~448 kbps
Cубтитры: Отсутствуют
Общее
Полное имя : H:\Torrent2\Poljarnyj.rejs.2013.O.DVDRip.1400MB_[pirat.ca].avi
Формат : AVI
Формат/Информация : Audio Video Interleave
Размер файла : 1,37 Гбайт
Продолжительность : 1 ч. 28 м.
Общий поток : 2219 Кбит/сек
Программа кодирования : VirtualDubMod 1.5.10.3 | www.virtualdub-fr.org || (build 2550/release)
Библиотека кодирования : VirtualDubMod build 2550/release
Видео
Идентификатор : 0
Формат : MPEG-4 Visual
Профиль формата : Advanced [email protected]
Параметр BVOP формата : 1
Параметр QPel формата : Нет
Параметр GMC формата : Без точки перехода
Параметр матрицы формата : Выборочная
Идентификатор кодека : XVID
Идентификатор кодека/Подсказка : XviD
Продолжительность : 1 ч. 28 м.
Битрейт : 1761 Кбит/сек
Ширина : 720 пикселей
Высота : 320 пикселей
Соотношение сторон : 2,25:1
Частота кадров : 25,000 кадров/сек
Цветовое пространство : YUV
Субдискретизация насыщенности : 4:2:0
Битовая глубина : 8 бит
Тип развёртки : Прогрессивная
Метод сжатия : С потерями
Бит/(Пиксели*Кадры) : 0.306
Размер потока : 1,08 Гбайт (79%)
Библиотека кодирования : XviD 1.2.1 (UTC 2008-12-04)
Аудио
Идентификатор : 1
Формат : AC-3
Формат/Информация : Audio Coding 3
Расширение режима : CM (complete main)
Параметр Endianness формата : Big
Идентификатор кодека : 2000
Продолжительность : 1 ч. 28 м.
Вид битрейта : Постоянный
Битрейт : 448 Кбит/сек
Каналы : 6 каналов
Расположение каналов : Front: L C R, Side: L R, LFE
Частота : 48,0 КГц
Битовая глубина : 16 бит
Метод сжатия : С потерями
Размер потока : 282 Мбайт (20%)
Выравнивание : Разделение по промежуткам
Продолжительность промежутка : 40 мс. (1,00 видеокадр)
Время предзагрузки промежутка : 500 мс.
Download / Скачать

Хотите скачать бесплатно? Зарегистрируйтесь на сайте (ссылка на регистрацию). Pirat.ca - самый быстрый торрент трекер в рунете!

Как скачивать  ·   Что такое торрент  ·   Рейтинг и ограничения

Пост 06-Янв-2014 19:25 (спустя 1 час 13 минут)

Топик был перенесен из форума Наше кино (Трюм) в форум Новинки (HD|DVD|BD| TV|SAT|PDTV| - Rips)
erchine
 

congress

Морской Волк

75

Пост 07-Янв-2014 12:29 (спустя 18 часов)

[Q] 

скачан 113 раз - отзывов "уйма")))
качаю на свой страх и риск)
спасибо! Лови бочку

_________________
Котлеты – самые лучшие пирожки. У них и внутри мясо, и вместо теста – тоже мясо.
[Профиль]  [ЛС] 

Alex Yz

Гроза морей

Пост 07-Янв-2014 13:34 (спустя 1 час 4 минуты)

[Q] 

Спасибо. Жена ждала.
[Профиль]  [ЛС] 

torm123

Штурман

Пост 07-Янв-2014 18:32 (спустя 4 часа)

[Q] 

Хорошая, добрая история. Без пошлости, без грязи, с хорошими актерами и музыкой. Поставил бы 7 балов запросто. На кинопоиске видимо совсем не осталось объективных оценок. Против мерзкой "Горько" просто отличный фильм!
[Профиль]  [ЛС] 

anton78

Морской Волк

Пост 07-Янв-2014 22:05 (спустя 3 часа)

[Q] 

Качаю ,тоже с женой посматрю!!!! Темболее днюха у неё,надеюсь фильм порадует!)))))) 28
[Профиль]  [ЛС] 

Martini_ice

Морской Волк

Пост 08-Янв-2014 13:37 (спустя 15 часов)

[Q] 

посмотрим Автору респект!!! Лови бочку
[Профиль]  [ЛС] 

Jek@

Легенда

Пост 09-Янв-2014 04:44 (спустя 15 часов)

[Q] 

Спасибо!!! .
[Профиль]  [ЛС] 

WWsimf

Флибустьер

Пост 09-Янв-2014 20:49 (спустя 16 часов)

[Q] 

Спасибо !!! Пиратка рулит!
[Профиль]  [ЛС] 

tse

Морской Волк

Пост 09-Янв-2014 23:03 (спустя 2 часа 14 минут)

[Q] 

Качну и я! Глянем.
[Профиль]  [ЛС] 

Selim

Корсар

Пост 09-Янв-2014 23:44 (спустя 41 минута)

[Q] 

Посмотрел. Есть такие фильмы при просмотре которых испытываешь раздражение за глупые шутки и якобы комедийные ситуации. Так вот это тот самый фильм. Отказать
[Профиль]  [ЛС] 

mrdim-CHEHOV

Флибустьер

Пост 11-Янв-2014 00:38 (спустя 1 день)

[Q] 

Автору респект!!! глянем... aa

_________________
Все будет не так, как мы решим. Все будет тогда, когда мы решимся.
[Профиль]  [ЛС] 

tse

Морской Волк

Пост 11-Янв-2014 01:37 (спустя 59 минут)

[Q] 

Я жалею что скачал такой бредняк. Потерянное время. Сценарий явно писан после обильных возлияний, укурки и т.д. Муть редчайшая. не советую качать однозначно. А если скачали - не смотрите. Не тратьте попусту время. Трафик потрачен зря!
[Профиль]  [ЛС] 

UA4HQW

Флибустьер

2528

Пост 20-Янв-2014 13:46 (спустя 9 дней)

[Q] 

Хороший фильм. Мне понравился.
Автору респект!!!
[Профиль]  [ЛС] 

kudrjavy

Флибустьер

Пост 27-Янв-2014 21:38 (спустя 7 дней)

[Q] 

Спсибо!!))посмотрим))

_________________
Девушки-как печеньки: ломаются,пока не намокнут...
[Профиль]  [ЛС] 

tabletka

Штурман

Пост 05-Фев-2014 22:59 (спустя 9 дней)

[Q] 

Раздающему респект! Будем посмотреть, что это за отечественное за кино.
[Профиль]  [ЛС] 

sashafandey

Морской Волк

Пост 06-Фев-2014 00:48 (спустя 1 час 49 минут)

[Q] 

уйня полная Ой как стыдно-то...
[Профиль]  [ЛС] 

kimrutberg

Морской Волк

Пост 07-Мар-2014 00:43 (спустя 1 месяц)

[Q] 

Спасибо за раздачу Лови бочку

_________________
Всем пиратам - семь футов под килем !
[Профиль]  [ЛС] 

Дмитрий12

Лоцман

Пост 07-Мар-2014 09:06 (спустя 8 часов)

[Q] 

Хорошая, добрая история Пиратка рулез!!!
[Профиль]  [ЛС] 

alex denver71

Флибустьер

Пост 17-Мар-2014 18:54 (спустя 10 дней)

[Q] 

Хорошая, добрая история. Без пошлости, без грязи, с хорошими актерами и музыкой. Поставил бы 7 балов запросто. На кинопоиске видимо совсем не осталось объективных оценок. Против мерзкой "Горько" просто отличный фильм!
Полностью согласен на счет фильма: Хороший фильм bf Действительно "Горько"-это что-то bl
[Профиль]  [ЛС] 

AirPower

Морской Волк

Пост 08-Апр-2014 00:47 (спустя 21 день)

[Q] 

Унылое г! в 21 веке такое снимать только троечники бесталантные могут...
Отказать
[Профиль]  [ЛС] 

menedzher42

Матрос

Пост 12-Апр-2014 15:28 (спустя 4 дня)

[Q] 

474957Посмотрел. Есть такие фильмы при просмотре которых испытываешь раздражение за глупые шутки и якобы комедийные ситуации. Так вот это тот самый фильм. Отказать
все верно сказано. Ощущение низкобюджетного, наспех снятого фильма с кучей лишних актёров. Кинопоиск не врет... Можно посмотреть, от нечего делать
[Профиль]  [ЛС] 
Показать сообщения:    
Ответить на тему

Текущее время: Сегодня 14:14

Часовой пояс: GMT + 4



Вы не можете начинать темы
Вы не можете отвечать на сообщения
Вы не можете редактировать свои сообщения
Вы не можете удалять свои сообщения
Вы не можете голосовать в опросах
Вы не можете прикреплять файлы к сообщениям
Вы не можете скачивать файлы

▼ Вниз