ML
     
  Уважаемый Гость!
Вы можете поддержать проект и зарегистрироваться у наших партнеров - онлайн-стратегия MyLands. При регистрации в игре Вы получите код, который сможете активировать после регистрации на pirat.ca и получить 1000 дублонов.

Ваш код:
4855957e17f50c5c1236a0f8c4492b2b0bba00a0
 
     

Хочу замуж (Глеб Якубовский) [2013 г., Комедия, Мелодрама, SATRip]

Ответить на тему
 
Автор
Сообщение

Пост 09-Янв-2014 16:09

[Q] 

ara1205

-Хочу замуж-- Производство: Россия
Год выпуска: 2013 г.
Жанр: Комедия, Мелодрама
Продолжительность: 01:29:29-Режиссер: Глеб Якубовский-В ролях: Юлия Кадушкевич, Павел Южаков-Харланчук, Марина Денисова, Татьяна Лютаева, Андрей Фролов (II)-Описание: Представляем вашему вниманию новую драматическую историю с нетривиальным названием «Хочу замуж». Согласитесь, одно только название обязывает фильм быть очень веселым, добрым и романтичным. Всё началось с того, что подруга Галя сагитировала главную героиню пойти к знакомой гадалке, чтобы та ей, наконец-то, суженого нагадала. И та действительно нагадала, правда с одним “но”. Чтобы прожить долгую и счастливую семейную жизнь, Варе со своим суженым необходимо ступить под венец не позже, чем через три недели.
Легко сказать, да вот только как успеть и суженого найти, и в себя влюбить, да ещё и под венец затащить? Не пропустите возможность скачать фильм «Хочу замуж» в хорошем качестве, чтобы узнать, как наша героиня справится со столь непростым заданием. Озадачивает и то, насколько точно гадалка описала “суженого”, уж очень похоже, что речь идёт о ком-то конкретном, ком-то, кого для любимой подруги подобрала заботливая Галя. Впрочем, сама Галя утверждает, что ничего такого вовсе и не замышляла и к описанию суженого не имеет отношения.
В таком случае дело совсем уж керосином запахло, ведь по описанию жених Варе совсем и не понравился. Как же быть? Быть может, в жизни он окажется немного лучше? Что ж, поживём – увидим. Не исключено, что это только описание нашей героине не понравилось, а познакомившись с тем парнем, она поймёт, что именно он – её настоящая судьба? А может, Варе всё же предстоит пойти наперекор судьбе и встретить того, кого она действительно сумеет полюбить всем сердцем? Время покажет. А в активе у нашей героини три недели и искреннее желание встретить суженого…- -Качество видео: SATRip
Контейнер: AVI
Видео кодек: DivX
Аудио кодек: MP3
Видео: 720x400, 25 fps, 2051 kbps avg, 0.285 bit/pixel
Аудио: 48 kHz, MPEG Layer 3, 2 ch, ~128.00 kbps avg
Cубтитры: отсутствуют-
Общее
Полное имя : C:\Users\Роман\Pictures\Хочу замуж\Hochu.hamuzh.2013.SATRip.avi
Формат : AVI
Формат/Информация : Audio Video Interleave
Размер файла : 1,37 Гбайт
Продолжительность : 1 ч. 29 м.
Общий поток : 2188 Кбит/сек
Библиотека кодирования : VirtualDub build 32842/release
Видео
Идентификатор : 0
Формат : MPEG-4 Visual
Параметр BVOP формата : 1
Параметр QPel формата : Нет
Параметр GMC формата : Без точки перехода
Параметр матрицы формата : Default (H.263)
Режим смешивания : Сжатый битовый поток
Идентификатор кодека : DX50
Идентификатор кодека/Подсказка : DivX 5
Продолжительность : 1 ч. 29 м.
Битрейт : 2051 Кбит/сек
Ширина : 720 пикселей
Высота : 400 пикселей
Соотношение сторон : 16:9
Частота кадров : 25,000 кадров/сек
Цветовое пространство : YUV
Субдискретизация насыщенности : 4:2:0
Битовая глубина : 8 бит
Тип развёртки : Прогрессивная
Метод сжатия : С потерями
Бит/(Пиксели*Кадры) : 0.285
Размер потока : 1,28 Гбайт (94%)
Библиотека кодирования : DivX 6.8.5 (UTC 2009-08-20)
Аудио
Идентификатор : 1
Формат : MPEG Audio
Версия формата : Version 1
Профиль формата : Layer 3
Режим : Joint stereo
Расширение режима : MS Stereo
Идентификатор кодека : 55
Идентификатор кодека/Подсказка : MP3
Продолжительность : 1 ч. 29 м.
Вид битрейта : Постоянный
Битрейт : 128 Кбит/сек
Каналы : 2 канала
Частота : 48,0 КГц
Метод сжатия : С потерями
Размер потока : 81,9 Мбайт (6%)
Выравнивание : Разделение по промежуткам
Продолжительность промежутка : 40 мс. (1,00 видеокадр)
Время предзагрузки промежутка : 500 мс.
-
-
-
Download / Скачать

Хотите скачать бесплатно? Зарегистрируйтесь на сайте (ссылка на регистрацию). Pirat.ca - самый быстрый торрент трекер в рунете!

Как скачивать  ·   Что такое торрент  ·   Рейтинг и ограничения

Gari4

Флибустьер

Пост 09-Янв-2014 16:47 (спустя 37 минут)

[Q] 

нет активных потоков..
[Профиль]  [ЛС] 

Dysy

Морской Волк

Пост 09-Янв-2014 17:08 (спустя 20 минут)

[Q] 

474702нет активных потоков..
Все прекрасно уже скачал за 10 минут Раздающему респект! Лови бочку
[Профиль]  [ЛС] 

vovan200976

Флибустьер

Пост 09-Янв-2014 19:24 (спустя 2 часа 16 минут)

[Q] 

Юлия Кадушкевич ХАЧУУУУУУУ !!!!!!!
[Профиль]  [ЛС] 

Igrix

Шкипер

Пост 09-Янв-2014 20:20 (спустя 56 минут)

[Q] 

Однозначно не качать фу
[Профиль]  [ЛС] 

Sagrado

Шкипер

Пост 11-Янв-2014 01:21 (спустя 1 день 5 часов)

[Q] 

Почитал описание, что фильм посмотрел))

_________________
Кот, уснувший в стиральной машине, проснулся только на пятом круге, но уже на шестом выбился в лидеры, обогнав носки и лифчик
[Профиль]  [ЛС] 

UA4HQW

Флибустьер

2528

Пост 21-Фев-2014 16:33 (спустя 1 месяц 10 дней)

[Q] 

Комедии я тут не увидел.
На любителя Автору респект!!!
[Профиль]  [ЛС] 

vanok356

Юнга

Пост 09-Мар-2014 11:05 (спустя 15 дней)

[Q] 

Может и зря но попробую качать.
[Профиль]  [ЛС] 

einer

Канонир

Пост 15-Мар-2014 21:04 (спустя 6 дней)

[Q] 

Что за фигня. Какая это комедия? ХЗ!!!
[Профиль]  [ЛС] 
Показать сообщения:    
Ответить на тему

Текущее время: Сегодня 06:13

Часовой пояс: GMT + 4



Вы не можете начинать темы
Вы не можете отвечать на сообщения
Вы не можете редактировать свои сообщения
Вы не можете удалять свои сообщения
Вы не можете голосовать в опросах
Вы не можете прикреплять файлы к сообщениям
Вы не можете скачивать файлы

▼ Вниз