ML
     
  Уважаемый Гость!
Вы можете поддержать проект и зарегистрироваться у наших партнеров - онлайн-стратегия MyLands. При регистрации в игре Вы получите код, который сможете активировать после регистрации на pirat.ca и получить 1000 дублонов.

Ваш код:
4399ab8611ee7f8a22949d2ee7634160dd2db7e0
 
     

Высоцкий. Спасибо, что живой (Петр Буслов) [2011 г., драма, биография, DVDRip-AVC][internal release]

Ответить на тему
 
Автор
Сообщение

Пост 06-Янв-2012 13:52

[Q] 

zyyx

--Высоцкий. Спасибо, что живой
«Два часа настоящей жизни»
-- Год выпуска: 2011
Мировая премьера: 1 декабря 2011
Российская премьера: 1 декабря 2011, «WDSSPR»
Дата выхода DVD: 19 января 2012, «Флагман-Трейд»
Страна: Россия
Жанр: драма, биография
Продолжительность: 02:06:47
Перевод: Не требуется [Лицензия]
Режиссер: Петр Буслов
В ролях: Оксана Акиньшина, Сергей Безруков, Андрей Смоляков, Иван Ургант, Максим Леонидов, Андрей Панин, Владимир Ильин, Дмитрий Астрахан, Анна Ардова, Владимир Меньшов
Описание: Действие фильма разворачивается в 1979 году, когда на одном из концертов Высоцкому становится плохо с сердцем. Он переживает клиническую смерть.
Источник/Качество: DVDRip-AVC | Сэмпл
Формат: MKV
Видео кодек: H.26x
Аудио кодек: AC3
Видео: [email protected], 25.000 fps, 1927 Kbps
Аудио: 48 kHz, 6 ch, 384 kbps
General
Complete name : C:\Users\zyyx\Desktop\Vysockij.Spasibo.chto.zhivoj.2011.DVDRip-AVC.zyyx.mkv
Format : Matroska
File size : 2.05 GiB
Duration : 2h 6mn
Overall bit rate : 2 312 Kbps
Encoded date : UTC 2012-01-06 11:21:48
Writing application : mkvmerge v4.6.0 ('Still Crazy After All These Years') сборка от Mar 13 2011 18:33:29
Writing library : libebml v1.2.0 + libmatroska v1.1.0
Video
ID : 1
Format : AVC
Format/Info : Advanced Video Codec
Format profile : [email protected]
Format settings, CABAC : Yes
Format settings, ReFrames : 16 frames
Muxing mode : Container [email protected]
Codec ID : V_MPEG4/ISO/AVC
Duration : 2h 6mn
Bit rate : 1 882 Kbps
Nominal bit rate : 1 927 Kbps
Width : 704 pixels
Height : 432 pixels
Display aspect ratio : 2.25:1
Frame rate : 25.000 fps
Resolution : 24 bits
Colorimetry : 4:2:0
Scan type : Progressive
Bits/(Pixel*Frame) : 0.248
Stream size : 1.67 GiB (81%)
Writing library : x264 core 114 r1924 08d04a4
Encoding settings : cabac=1 / ref=16 / deblock=1:-2:-1 / analyse=0x3:0x133 / me=umh / subme=9 / psy=1 / psy_rd=1.00:0.20 / mixed_ref=1 / me_range=32 / chroma_me=1 / trellis=2 / 8x8dct=1 / cqm=0 / deadzone=21,11 / fast_pskip=0 / chroma_qp_offset=-3 / threads=6 / sliced_threads=0 / nr=0 / decimate=1 / interlaced=0 / constrained_intra=0 / bframes=8 / b_pyramid=2 / b_adapt=2 / b_bias=0 / direct=3 / weightb=1 / open_gop=0 / weightp=2 / keyint=250 / keyint_min=25 / scenecut=40 / intra_refresh=0 / rc_lookahead=60 / rc=2pass / mbtree=1 / bitrate=1927 / ratetol=1.0 / qcomp=0.60 / qpmin=0 / qpmax=69 / qpstep=4 / cplxblur=20.0 / qblur=0.5 / ip_ratio=1.40 / aq=1:1.00
Audio
ID : 2
Format : AC-3
Format/Info : Audio Coding 3
Codec ID : A_AC3
Duration : 2h 6mn
Bit rate mode : Constant
Bit rate : 384 Kbps
Channel(s) : 6 channels
Channel positions : Front: L C R, Surround: L R, LFE
Sampling rate : 48.0 KHz
Stream size : 348 MiB (17%)
Download / Скачать

Хотите скачать бесплатно? Зарегистрируйтесь на сайте (ссылка на регистрацию). Pirat.ca - самый быстрый торрент трекер в рунете!

Как скачивать  ·   Что такое торрент  ·   Рейтинг и ограничения

Roadrunner-II

Лоцман

Пост 06-Янв-2012 14:09 (спустя 16 минут)

[Q] 

Спасибо,здорово щас посмотрю!
[Профиль]  [ЛС] 

Twitch

Лоцман

Пост 06-Янв-2012 14:14 (спустя 5 минут)

[Q] 

с такой скоростью мы его посмотрим через 2 недели.
zyyx дай суперсида чтоль!!
[Профиль]  [ЛС] 

allorid

Лоцман

219

Пост 06-Янв-2012 15:35 (спустя 1 час 20 минут)

[Q] 

Газу поддай, 13 часов качать, ачуметь!!!
[Профиль]  [ЛС] 

Пост 06-Янв-2012 15:47 (спустя 12 минут)

Топик был перенесен из форума Наше Кино в форум Новинки (HD|DVD|BD|TV|SAT|PDTV| - Rips)

goxakrauter
 

nikakiy

Лоцман

Пост 06-Янв-2012 18:39 (спустя 3 часа)

[Q] 

Ну очень скорости хочется!
Спасиб за раздачу.
[Профиль]  [ЛС] 

dimonpa

Гроза морей

Пост 06-Янв-2012 19:59 (спустя 1 час 20 минут)

[Q] 

Супер, спасибо !!!
[Профиль]  [ЛС] 

Alexander1985

Шкипер

Пост 07-Янв-2012 03:41 (спустя 7 часов)

[Q] 

смотрел фильм в кинотеатре, мне очень понравился, хоть я и редко слушаю его песни, но уважаю как человека.
[Профиль]  [ЛС] 

Romanmw223

Морской Волк

1034

Пост 07-Янв-2012 04:43 (спустя 1 час 1 минута)

[Q] 

Фильм очень понравился! Спасибо!

_________________
[Профиль]  [ЛС] 

post_aleks

Шкипер

689

Пост 07-Янв-2012 21:31 (спустя 16 часов)

[Q] 

Спасибо!!!!

_________________
Идеального мужчину можно встретить на каждом углу - сказал Бог, и создал Землю круглой...
[Профиль]  [ЛС] 

Мишки

Морской Волк

Пост 08-Янв-2012 22:57 (спустя 1 день 1 час)

[Q] 

Сильный фильм, рекомендую посмотреть.

_________________
Это всего лишь игра, настройся на волну позитива!:)
[Профиль]  [ЛС] 

alex 86

Морской Волк

Пост 09-Янв-2012 13:24 (спустя 14 часов)

[Q] 

На плазме через флешку схавает?
[Профиль]  [ЛС] 

Primorec

Штурман

Пост 09-Янв-2012 16:29 (спустя 3 часа)

[Q] 

На плазме через флешку схавает?
ну смотря какая плазма
[Профиль]  [ЛС] 

Primorec

Штурман

Пост 09-Янв-2012 16:31 (спустя 1 минута)

[Q] 

Сильный фильм, рекомендую посмотреть.
скорее бы вышел он на blu-ray чтобы FHD выложили, чтобы ещё раз посмотреть как в кинотеатре!
[Профиль]  [ЛС] 

alex 86

Морской Волк

Пост 09-Янв-2012 19:40 (спустя 3 часа)

[Q] 

Всё читает!Посмотрел с удовольствием!Одно разочаровало мало песен (т.е выступлений) и не хватает чего то в фильме, пустоватым получился с уклоном на наркотики, а хотелось уклон музыкальный больше и Москвы мало, как то всё мельком!Но в целом фильм хороший смотрел с интересом, молодец Безруков хорошо вжился в роль!Но не хватает роста и плечи маленькие!
Надеюсь выйдет в 720р!Пересмотрю с удовольствием!Вечная память В.С Высоцкому!
[Профиль]  [ЛС] 

alenkalive1994

Лоцман

Пост 09-Янв-2012 20:09 (спустя 29 минут)

[Q] 

Спасибо огромное!!!
смотрела в кинотеатре безумно понравилось:)
[Профиль]  [ЛС] 

K-0-t

Морской Волк

544

Пост 16-Янв-2012 15:26 (спустя 6 дней)

[Q] 

Спасибо. Посмотрим в качестве.
[Профиль]  [ЛС] 

smartboy

Корсар

Пост 20-Янв-2012 21:00 (спустя 4 дня)

[Q] 

Спасибо!!!!
[Профиль]  [ЛС] 

VaNo192

Корсар

Пост 31-Янв-2012 06:48 (спустя 10 дней)

[Q] 

В целом фильм понравился, но второй раз его смотреть не стану, как уже сказал alex 86 - фильм получился пустоватым и однобоким. Тема его творчества не раскрыта(а ведь он этим, можно сказать, дышал); весь упор делается на наркотики и бабки(по-современному, ничего не скажешь, особенно про бабки); Марина Влади упоминается вскользь - чувствуется обида на неё сынули-Никиты(кстати, почитайте её мнение по поводу фильма); да и вообще, не совсем понятно, что хотел сказать Никита Высоцкий, сняв фильм про такой короткий и неоднозначный период жизни своего отца...
[Профиль]  [ЛС] 

anonymoys

Гроза морей

901

Пост 01-Фев-2012 07:18 (спустя 1 день)

[Q] 

Спасибо!!!!
[Профиль]  [ЛС] 

shelby290

Флибустьер

Пост 21-Сен-2012 16:51 (спустя 7 месяцев 20 дней)

[Q] 

[Профиль]  [ЛС] 
Показать сообщения:    
Ответить на тему

Текущее время: Сегодня 10:48

Часовой пояс: GMT + 4



Вы не можете начинать темы
Вы не можете отвечать на сообщения
Вы не можете редактировать свои сообщения
Вы не можете удалять свои сообщения
Вы не можете голосовать в опросах
Вы не можете прикреплять файлы к сообщениям
Вы не можете скачивать файлы

▼ Вниз