ML
     
  Уважаемый Гость!
Вы можете поддержать проект и зарегистрироваться у наших партнеров - онлайн-стратегия MyLands. При регистрации в игре Вы получите код, который сможете активировать после регистрации на pirat.ca и получить 1000 дублонов.

Ваш код:
8b29d0f8cd61fe457e59e7df0aa1fab41a2b88b9
 
     

7 главных желаний (Вадим Соколовский) [2013 г., мелодрама, комедия, DVDRip]

Ответить на тему
 
Автор
Сообщение

Пост 25-Янв-2014 14:40

[Q] 

aleksey99

--7 главных желаний--«Осторожно – мечты сбываются!»-- Производство: Россия, Rock Films
Режиссер: Вадим Соколовский
Жанр: мелодрама, комедия
Год выпуска: 2013 г.
Продолжительность: 01:17:24--Российская премьера: 5 декабря 2013, «Парадиз»
Релиз на DVD: 21 января 2014, «CD Land»--В ролях: Юлия Козырева, Антон Макарский, Игорь Петренко, Ирина Пегова, Екатерина Климова, Людмила Чурсина, Наталья Суркова, Геннадий Смирнов, Агнетта Ойеволе, Александр Коробков--Описание: Мы мечтаем о многом, но чего же хотим на самом деле? Это предстоит узнать Маше, в руки которой в канун Нового года попала волшебная птичка, готовая исполнить её семь самых заветных желаний. Маша отправляется на поиски своей мечты и проходит через множество чудесных превращений. Но принесёт ли счастье та жизнь, о которой она грезит? А может, настоящий принц совсем рядом?-- --Трейлер--Качество видео: DVDRip
Контейнер: AVI
Видео кодек: XviD
Аудио кодек: AC3
Видео: 720x304 (2.37:1), 25 fps, XviD build 50 ~2069 kbps avg, 0.38 bit/pixel
Аудио: 48 kHz, AC3 Dolby Digital, 3/2 (L,C,R,l,r) + LFE ch, ~448 kbps
Cубтитры: Отсутствуют
Общее
Полное имя : H:\Torrent2\7.Glavnyh.Jelaniy.2013.O.DVDRip.1400MB_[pirat.ca].avi
Формат : AVI
Формат/Информация : Audio Video Interleave
Размер файла : 1,37 Гбайт
Продолжительность : 1 ч. 17 м.
Общий поток : 2528 Кбит/сек
Программа кодирования : VirtualDubMod 1.5.10.2 (build 2540/release)
Библиотека кодирования : VirtualDubMod build 2540/release
Видео
Идентификатор : 0
Формат : MPEG-4 Visual
Профиль формата : Advanced [email protected]
Параметр BVOP формата : 2
Параметр QPel формата : Нет
Параметр GMC формата : Без точки перехода
Параметр матрицы формата : Default (MPEG)
Идентификатор кодека : XVID
Идентификатор кодека/Подсказка : XviD
Продолжительность : 1 ч. 17 м.
Битрейт : 2070 Кбит/сек
Ширина : 720 пикселей
Высота : 304 пикселя
Соотношение сторон : 2,35:1
Частота кадров : 25,000 кадров/сек
Цветовое пространство : YUV
Субдискретизация насыщенности : 4:2:0
Битовая глубина : 8 бит
Тип развёртки : Прогрессивная
Метод сжатия : С потерями
Бит/(Пиксели*Кадры) : 0.378
Размер потока : 1,12 Гбайт (82%)
Библиотека кодирования : XviD 1.2.1 (UTC 2008-12-04)
Аудио
Идентификатор : 1
Формат : AC-3
Формат/Информация : Audio Coding 3
Расширение режима : CM (complete main)
Параметр Endianness формата : Big
Идентификатор кодека : 2000
Продолжительность : 1 ч. 17 м.
Вид битрейта : Постоянный
Битрейт : 448 Кбит/сек
Каналы : 6 каналов
Расположение каналов : Front: L C R, Side: L R, LFE
Частота : 48,0 КГц
Битовая глубина : 16 бит
Метод сжатия : С потерями
Размер потока : 248 Мбайт (18%)
Выравнивание : Разделение по промежуткам
Продолжительность промежутка : 40 мс. (1,00 видеокадр)
Время предзагрузки промежутка : 500 мс.
Download / Скачать

Хотите скачать бесплатно? Зарегистрируйтесь на сайте (ссылка на регистрацию). Pirat.ca - самый быстрый торрент трекер в рунете!

Как скачивать  ·   Что такое торрент  ·   Рейтинг и ограничения

Пост 25-Янв-2014 15:00 (спустя 19 минут)

Топик был перенесен из форума Наше кино (Трюм) в форум Новинки (HD|DVD|BD| TV|SAT|PDTV| - Rips)
kugesan
 

serg_bmw

Гроза морей

650

Пост 25-Янв-2014 17:19 (спустя 2 часа 38 минут)

[Q] 

Лови бочку

_________________
[Профиль]  [ЛС] 

Ambre

Корсар

Пост 25-Янв-2014 21:13 (спустя 3 часа)

[Q] 

очередной российский шлак На любителя Спасибо!!!
[Профиль]  [ЛС] 

demon-292

Корсар

Пост 25-Янв-2014 21:19 (спустя 6 минут)

[Q] 

Ambre, На вкус и цвет все фломастеры разные! (Имхо)
aleksey99, Спасибо за труды!!! Лови бочку Спасибо!!!
[Профиль]  [ЛС] 

Slava30

Морской Волк

Пост 25-Янв-2014 22:24 (спустя 1 час 4 минуты)

[Q] 

так и знал что гомно!!!!!! хоть всей россией скидывайся на толкового режисёра
[Профиль]  [ЛС] 

myakotin_alex

Шкипер

Пост 26-Янв-2014 03:25 (спустя 5 часов)

[Q] 

РУССКИЙ БРЕД?
[Профиль]  [ЛС] 

Gari4

Флибустьер

Пост 26-Янв-2014 19:48 (спустя 16 часов)

[Q] 

я почему то тоже уверен, что полная чушь и качать не стоит...
[Профиль]  [ЛС] 

kudrjavy

Флибустьер

Пост 27-Янв-2014 21:32 (спустя 1 день 1 час)

[Q] 

разок-то можно посмотреть)))хотя шлак наверняка))но тем не менее-спасибо за труды!! Спасибо!!!

_________________
Девушки-как печеньки: ломаются,пока не намокнут...
[Профиль]  [ЛС] 

metampsy

Корсар

Пост 28-Янв-2014 01:39 (спустя 4 часа)

[Q] 

Рейтинги радуют!!!
[Профиль]  [ЛС] 

alex denver71

Флибустьер

Пост 29-Янв-2014 13:10 (спустя 1 день 11 часов)

[Q] 

Автору респект!!! фильм на троечку На любителя
[Профиль]  [ЛС] 

myakotin_alex

Шкипер

Пост 02-Фев-2014 15:13 (спустя 4 дня)

[Q] 

НУ, ЧТО КТО ЧТО СКАЖЕТ
[Профиль]  [ЛС] 

Yrets

Флибустьер

159

Пост 03-Фев-2014 20:09 (спустя 1 день 4 часа)

[Q] 

?????????????????????????????????
[Профиль]  [ЛС] 

zvyagin_da

Пост 03-Фев-2014 20:47 (спустя 37 минут)

[Q] 

разок-то можно посмотреть
[Профиль]  [ЛС] 
Показать сообщения:    
Ответить на тему

Текущее время: Сегодня 21:20

Часовой пояс: GMT + 4



Вы не можете начинать темы
Вы не можете отвечать на сообщения
Вы не можете редактировать свои сообщения
Вы не можете удалять свои сообщения
Вы не можете голосовать в опросах
Вы не можете прикреплять файлы к сообщениям
Вы не можете скачивать файлы

▼ Вниз