ML
     
  Уважаемый Гость!
Вы можете поддержать проект и зарегистрироваться у наших партнеров - онлайн-стратегия MyLands. При регистрации в игре Вы получите код, который сможете активировать после регистрации на pirat.ca и получить 1000 дублонов.

Ваш код:
ef8b3e8cd07bec918273586d22e5aaf18e0ae925
 
     

Контакт (Сергей Борчуков) [2012 г., фантастика, SATRip]

Ответить на тему
 
Автор
Сообщение

Пост 31-Янв-2014 19:33

[Q] 

Resident

-Контакт-- Производство: Россия
Режиссер: Сергей Борчуков
Жанр: фантастика
Год выпуска: 2012 г.
Продолжительность: 01:30:00
В ролях: Алексей Горбунов, Дмитрий Орлов, Ирина Лачина, Александр Анисимов, Константин Соловьев-Описание: Экипаж космического корабля возвращается на Землю. На спускаемом аппарате обнаружены значительные внешние повреждения, не совместимые с жизнью космонавтов, но не смотря на это, они живы. Более того, ни на одном из них нет ни единой царапины. Все органы функционируют нормально. Единственная проблема - все они находятся в коме, и врачам не удаётся вывести их из этого состояния. Кроме того, у них в крови обнаружено странное вещество, аналогов которому до сегодняшнего дня на Земле не было. Об этом узнает Виктор - сам в прошлом космонавт, выгнанный из отряда, сейчас игрок, любитель казино и алкоголя. Подвергаясь большой опасности, ему предстоит узнать секрет инопланетного вещества...обретением себя..-
Качество видео: SATRip
Контейнер: AVI
Видео кодек: DivX
Аудио кодек: MP3
Видео: DivX, 1961 Кбит/с, 720x400, 25 fps, 0.266 bit / pix
Аудио: 48kHz, MP3, 2 ch, 128 Кбит/с
Cубтитры: отсутствуют
General
Complete name : W:\Kontakt.2012.SATRip.avi
Format : AVI
Format/Info : Audio Video Interleave
File size : 1.37 GiB
Duration : 1h 35mn
Overall bit rate : 2 054 Kbps
Writing library : VirtualDub build 35491/release
Video
ID : 0
Format : MPEG-4 Visual
Format settings, BVOP : Yes
Format settings, QPel : No
Format settings, GMC : No warppoints
Format settings, Matrix : Default (H.263)
Muxing mode : Packed bitstream
Codec ID : DX50
Codec ID/Hint : DivX 5
Duration : 1h 35mn
Bit rate : 1 961 Kbps
Width : 720 pixels
Height : 400 pixels
Display aspect ratio : 16:9
Frame rate : 25.000 fps
Color space : YUV
Chroma subsampling : 4:2:0
Bit depth : 8 bits
Scan type : Progressive
Bits/(Pixel*Frame) : 0.266
Stream size : 1.28 GiB (93%)
Writing library : DivX 6.8.5 (UTC 2009-08-20)
Audio
ID : 1
Format : MPEG Audio
Format version : Version 1
Format profile : Layer 3
Mode : Joint stereo
Mode extension : MS Stereo
Codec ID : 55
Codec ID/Hint : MP3
Duration : 1h 35mn
Bit rate mode : Constant
Bit rate : 128 Kbps
Channel(s) : 2 channels
Sampling rate : 48.0 KHz
Stream size : 87.3 MiB (6%)
Alignment : Split accross interleaves
Interleave, duration : 40 ms (1.00 video frame)
Interleave, preload duration : 500 ms
Download / Скачать

Хотите скачать бесплатно? Зарегистрируйтесь на сайте (ссылка на регистрацию). Pirat.ca - самый быстрый торрент трекер в рунете!

Как скачивать  ·   Что такое торрент  ·   Рейтинг и ограничения



Последний раз редактировалось: Resident (2014-02-01 00:34), всего редактировалось 1 раз

serg_bmw

Гроза морей

650

Пост 31-Янв-2014 21:13 (спустя 1 час 40 минут)

[Q] 

Спасибо!!!

_________________
[Профиль]  [ЛС] 

Пост 01-Фев-2014 10:38 (спустя 13 часов)

Топик был перенесен из форума Наше кино (Трюм) в форум Российские фильмы
kugesan
 

hohol541

Корсар

Пост 07-Фев-2014 12:58 (спустя 6 дней)

[Q] 

Описание заинтриговало. Попробую посмотреть.
[Профиль]  [ЛС] 

UA4HQW

Флибустьер

2528

Пост 16-Мар-2014 10:10 (спустя 1 месяц 8 дней)

[Q] 

Муть полнейшая !
Автору респект!!!
[Профиль]  [ЛС] 

Элфрей

Штурман

Пост 17-Ноя-2014 22:43 (спустя 8 месяцев 1 день)

[Q] 

Российская кино фантастика в зачаточном уровне Пытаются что то снять но получается пока плохо даже за большие деньги Но пытаться я думаю надо Опыт приходит с практикой Актёры не плохие снято в одном помещении Ради любопытства посмотреть можно на очередную попытку снять фантастику Автору респект!!!
[Профиль]  [ЛС] 

Колян-Вован

Корсар

Пост 14-Дек-2014 10:20 (спустя 26 дней)

[Q] 

Кадры как бы говорят сами за себя. Форма образца "Бюджетный охранник" прямо из магазина спецодежды (по накладной по 100 тысяч за экземпляр), врач-космонавт, у которого рубашка из рукава халата вылезает в отделении реаниматологии, ну, а последний - прямиком из "Дом-2". Для американцев-домохозяек покатит.)

_________________
Читайте классиков...
[Профиль]  [ЛС] 

diman3737

Пост 25-Дек-2014 17:31 (спустя 11 дней)

[Q] 

НЕ смотрите этот бред! Отказать
[Профиль]  [ЛС] 
Показать сообщения:    
Ответить на тему

Текущее время: Сегодня 18:41

Часовой пояс: GMT + 4



Вы не можете начинать темы
Вы не можете отвечать на сообщения
Вы не можете редактировать свои сообщения
Вы не можете удалять свои сообщения
Вы не можете голосовать в опросах
Вы не можете прикреплять файлы к сообщениям
Вы не можете скачивать файлы

▼ Вниз