ML
     
  Уважаемый Гость!
Вы можете поддержать проект и зарегистрироваться у наших партнеров - онлайн-стратегия MyLands. При регистрации в игре Вы получите код, который сможете активировать после регистрации на pirat.ca и получить 1000 дублонов.

Ваш код:
1a5b0a965618b2c406d4279ec9924ee6282c60cf
 
     

Золото (Андрей Мармонтов) [2012 г., драма, комедия, SATRip]

Ответить на тему
 
Автор
Сообщение

Пост 01-Фев-2014 11:22

[Q] 

aleksey99

--Золото--«Проиграл - плати»-- Производство: Россия, Свердловская киностудия
Режиссер: Андрей Мармонтов
Жанр: драма, комедия
Год выпуска: 2012 г.
Продолжительность: 01:50:43--Премьера (РФ): 13 февраля 2014, «Премьер-Кинопрокат»
Дата выхода DVD: 4 марта 2014, «CD Land»--В ролях: Сергей Безруков, Ирина Скобцева, Андрей Мерзликин, Михаил Пореченков, Анна Герман, Максим Шибаев, Любовь Куликова, Владимир Кабалин, Алексей Шемес, Дарья Михайлова--Описание: Судебный пристав предъявляет семье Брагиных иск по карточным долгам пропавшего брата. Для расчётов — два месяца. Или Гордея, как брата должника ждёт арест и тюрьма. Выход один — бросить всё и бежать. Всех спасает золотая жила. Прииск быстро приносит богатство: теперь Гордей — золотопромышленник! Но новая беда — ещё хуже: деньги! Их слишком много! Все хотят получить их… И всё идёт не так… совсем не так…-- --Трейлер--Качество видео: SATRip
Контейнер: AVI
Видео кодек: XviD
Аудио кодек: MP3
Видео: 704x304 (2.32:1), 25 fps, XviD build 50 ~1583 kbps avg, 0.30 bit/pixel
Аудио: 48 kHz, MPEG Layer 3, 2 ch, ~192.00 kbps avg
Cубтитры: Отсутствуют
Общее
Полное имя : H:\Torrent2\Zoloto.2014.O.SATRip.1400MB_[pirat.ca].avi
Формат : AVI
Формат/Информация : Audio Video Interleave
Размер файла : 1,37 Гбайт
Продолжительность : 1 ч. 50 м.
Общий поток : 1786 Кбит/сек
Программа кодирования : VirtualDubMod 1.5.10.3 | www.virtualdub-fr.org || (build 2550/release)
Библиотека кодирования : VirtualDubMod build 2550/release
Видео
Идентификатор : 0
Формат : MPEG-4 Visual
Профиль формата : Advanced [email protected]
Параметр BVOP формата : 1
Параметр QPel формата : Нет
Параметр GMC формата : Без точки перехода
Параметр матрицы формата : Выборочная
Идентификатор кодека : XVID
Идентификатор кодека/Подсказка : XviD
Продолжительность : 1 ч. 50 м.
Битрейт : 1584 Кбит/сек
Ширина : 704 пикселя
Высота : 304 пикселя
Соотношение сторон : 2,35:1
Частота кадров : 25,000 кадров/сек
Цветовое пространство : YUV
Субдискретизация насыщенности : 4:2:0
Битовая глубина : 8 бит
Тип развёртки : Прогрессивная
Метод сжатия : С потерями
Бит/(Пиксели*Кадры) : 0.296
Размер потока : 1,22 Гбайт (89%)
Библиотека кодирования : XviD 1.2.1 (UTC 2008-12-04)
Аудио
Идентификатор : 1
Формат : MPEG Audio
Версия формата : Version 1
Профиль формата : Layer 3
Режим : Joint stereo
Идентификатор кодека : 55
Идентификатор кодека/Подсказка : MP3
Продолжительность : 1 ч. 50 м.
Вид битрейта : Постоянный
Битрейт : 192 Кбит/сек
Каналы : 2 канала
Частота : 48,0 КГц
Метод сжатия : С потерями
Размер потока : 151 Мбайт (11%)
Выравнивание : Соединение по промежуткам
Продолжительность промежутка : 40 мс. (1,00 видеокадр)
Время предзагрузки промежутка : 504 мс.
Download / Скачать

Хотите скачать бесплатно? Зарегистрируйтесь на сайте (ссылка на регистрацию). Pirat.ca - самый быстрый торрент трекер в рунете!

Как скачивать  ·   Что такое торрент  ·   Рейтинг и ограничения

vovan200976

Флибустьер

Пост 01-Фев-2014 12:37 (спустя 1 час 15 минут)

[Q] 

По ходу этот шедевр на полках валялся 2 года !!
[Профиль]  [ЛС] 

Пост 01-Фев-2014 13:39 (спустя 1 час 1 минута)

Топик был перенесен из форума Наше кино (Трюм) в форум Новинки (HD|DVD|BD| TV|SAT|PDTV| - Rips)
erchine
 

Vinyard

Корсар

Пост 01-Фев-2014 15:07 (спустя 2 часа 29 минут)

[Q] 

спасибо. посмотрю. теперь еще тщательнее стал относится к выбора просмотра русского кино. главное чтобы не было в титрах и на экране гейской парочки мироновастахов. Как можно пердолить мужикам друг друга не пойму! Это же свинство какое-то!
[Профиль]  [ЛС] 

deliriy777

Штурман

Пост 01-Фев-2014 19:45 (спустя 4 часа)

[Q] 

глядя на фото этот вариант рассматривался
[Профиль]  [ЛС] 

hevard

Гроза морей

2109

Пост 02-Фев-2014 17:59 (спустя 22 часа)

[Q] 

486639спасибо. посмотрю. теперь еще тщательнее стал относится к выбора просмотра русского кино. главное чтобы не было в титрах и на экране гейской парочки мироновастахов. Как можно пердолить мужикам друг друга не пойму! Это же свинство какое-то!
Недавно общественность была шокирована заявлением руководителя Московского концептуального театра Кирилла Ганина, который написал на своей странице в Facebook о том, что на территории Германии известные российские актёры Сергей Астахов и Евгений Миронов сыграли гей-свадьбу.
Журналистам издания Heat.ru удалось получить комментарии у Сергея Астахова относительно этой информации. Репортёры отмечают, что в этот момент артист ужинал в компании Артема Михалкова и неизвестной брюнетки, с которой потом и покинул заведение.
"Я глупости не комментирую, но могу сказать, что в нашей стране пора принимать такой же закон, как в Америке. Если это доказано - то хорошо, если нет - надо наказывать людей, которые сочиняют такие глупости. Ну вот представьте, если Тома Круза, к примеру, обвинят в том, что он бьёт своих детей. В цивилизованных странах тех, кто сочиняет всё это, оставили бы без штанов просто", - заявил Астахов.

_________________
-Я старый пират и не знаю слов лицензионного соглашения...
[Профиль]  [ЛС] 

kudrjavy

Флибустьер

Пост 02-Фев-2014 22:45 (спустя 4 часа)

[Q] 

Спасибо!))) посмотрим на Безрукова)) Спасибо!!!

_________________
Девушки-как печеньки: ломаются,пока не намокнут...
[Профиль]  [ЛС] 

Vinyard

Корсар

Пост 02-Фев-2014 22:45 (спустя 15 секунд)

[Q] 

487329hevard
Недавно общественность была шокирована заявлением ...
если люди не пускаются в судебные тяжбы и не пытаются защитить репутацию, значит бояться проиграть и слова Ганина не далеки от истины.
[Профиль]  [ЛС] 

Yrets

Флибустьер

159

Пост 03-Фев-2014 20:20 (спустя 21 час)

[Q] 

Безруков? Опять небось про любовь к березкам))))
[Профиль]  [ЛС] 

zvyagin_da

Пост 03-Фев-2014 20:38 (спустя 17 минут)

[Q] 

спасибо. посмотрю.
[Профиль]  [ЛС] 

yam672

Корсар

Пост 13-Фев-2014 22:37 (спустя 10 дней)

[Q] 

да пох об этих... главное у нас запретили детей отдавать в страны с однополыми браками. но уже тот факт, что в России детей куда-то отдают......
[Профиль]  [ЛС] 

UA4HQW

Флибустьер

2528

Пост 21-Фев-2014 16:58 (спустя 7 дней)

[Q] 

Хороший фильм.
Мне понравилось Автору респект!!!
[Профиль]  [ЛС] 

multik1111

Лоцман

Пост 22-Фев-2014 01:35 (спустя 8 часов)

[Q] 

Спасибо!!! Лови бочку
[Профиль]  [ЛС] 
Показать сообщения:    
Ответить на тему

Текущее время: Сегодня 23:52

Часовой пояс: GMT + 4



Вы не можете начинать темы
Вы не можете отвечать на сообщения
Вы не можете редактировать свои сообщения
Вы не можете удалять свои сообщения
Вы не можете голосовать в опросах
Вы не можете прикреплять файлы к сообщениям
Вы не можете скачивать файлы

▼ Вниз