ML
     
  Уважаемый Гость!
Вы можете поддержать проект и зарегистрироваться у наших партнеров - онлайн-стратегия MyLands. При регистрации в игре Вы получите код, который сможете активировать после регистрации на pirat.ca и получить 1000 дублонов.

Ваш код:
4855957e17f50c5c1236a0f8c4492b2b0bba00a0
 
     

Сказ о розовом зайце (Фархат Шарипов) [2010 г., Драма, DVDRip,]

Ответить на тему
 
Автор
Сообщение

Пост 11-Фев-2014 17:34

[Q] 

krezzim

Шкипер

-Сказ о розовом зайце-- Производство: Казахстан
Режиссер: Фархат Шарипов
Жанр: Драма
Год выпуска: 2010 г.
Продолжительность: 01:45:47
Российская премьера: 26 августа 2010
В ролях: Ануар Нурпеисов, Максим Акбаров, Карлыгаш Мухамеджанова, Фархад Абдраимов, Бахтияр Кожа, Мурат Бисенбин, Саят Исембаев и др.-Описание: Провинциальный парень Ерлан, студент 3 курса одного из алматинских ВУЗов. Он приехал в город в надежде добиться успеха в будущем. Среда «золотой молодежи», куда он попадает, оказалось непростой. У нее свои законы, собственные порядки и для того, чтобы сохранить свои моральные принципы, многое придется заново пережить и испытать.-КиноПоиск
Качество видео: DVDRip
Контейнер: AVI
Видео кодек: XviD
Аудио кодек: AC3
Видео: 704x400 (16:9), 25 fps, XviD build 50 ~1769 kbps avg, 0.25 bit/pixel
Аудио: 48 kHz, AC3 Dolby Digital, 2/0 (L,R) ch, ~192 kbps
Cубтитры: отсутствуют
Общее
Полное имя : D:\закачки\Skaz_o_rozovom_zajce (pirat.ca).avi
Формат : AVI
Формат/Информация : Audio Video Interleave
Размер файла : 1,46 Гбайт
Продолжительность : 1 ч. 45 м.
Общий поток : 1972 Кбит/сек
Название фильма : Skaz.o.rozovom.zajce.2010.DVDRip.XviD.AC3. -WAZZZUP
Режиссёр : Inglide
Жанр : Drama
Программа кодирования : VirtualDubMod 1.5.10.2 (build 2542/release)
Формат оригинала/Имя : Movie
Правообладатель : WAZZZUP KARAGANDA
Видео
Идентификатор : 0
Формат : MPEG-4 Visual
Профиль формата : Advanced [email protected]
Параметр BVOP формата : 1
Параметр QPel формата : Нет
Параметр GMC формата : Без точки перехода
Параметр матрицы формата : Выборочная
Идентификатор кодека : XVID
Идентификатор кодека/Подсказка : XviD
Продолжительность : 1 ч. 45 м.
Битрейт : 1770 Кбит/сек
Ширина : 704 пикселя
Высота : 400 пикселей
Соотношение сторон : 16:9
Частота кадров : 25,000 кадров/сек
Цветовое пространство : YUV
Субдискретизация насыщенности : 4:2:0
Битовая глубина : 8 бит
Тип развёртки : Прогрессивная
Метод сжатия : С потерями
Бит/(Пиксели*Кадры) : 0.251
Размер потока : 1,31 Гбайт (90%)
Библиотека кодирования : XviD 1.2.1 (UTC 2008-12-04)
Аудио
Идентификатор : 1
Формат : AC-3
Формат/Информация : Audio Coding 3
Расширение режима : CM (complete main)
Параметр Endianness формата : Big
Идентификатор кодека : 2000
Продолжительность : 1 ч. 45 м.
Вид битрейта : Постоянный
Битрейт : 192 Кбит/сек
Каналы : 2 канала
Расположение каналов : Front: L R
Частота : 48,0 КГц
Битовая глубина : 16 бит
Метод сжатия : С потерями
Размер потока : 145 Мбайт (10%)
Выравнивание : Разделение по промежуткам
Продолжительность промежутка : 40 мс. (1,00 видеокадр)
Время предзагрузки промежутка : 500 мс.
Download / Скачать

Хотите скачать бесплатно? Зарегистрируйтесь на сайте (ссылка на регистрацию). Pirat.ca - самый быстрый торрент трекер в рунете!

Как скачивать  ·   Что такое торрент  ·   Рейтинг и ограничения



Последний раз редактировалось: krezzim (2014-02-12 18:51), всего редактировалось 6 раз(а)

alekss266

Лоцман

Пост 11-Фев-2014 18:19 (спустя 45 минут)

[Q] 

Забавный фильм.
[Профиль]  [ЛС] 

Пост 12-Фев-2014 23:17 (спустя 1 день 4 часа)

Топик был перенесен из форума Наше кино (Трюм) в форум Российские фильмы
kugesan
 

pz4

Корсар

79

Пост 13-Фев-2014 14:01 (спустя 1 день 19 часов)

[Q] 

491721Забавный фильм.
Согласен)

_________________
www.pirat.ca
[Профиль]  [ЛС] 

alexkalchenko

Корсар

40

Пост 24-Фев-2014 20:26 (спустя 11 дней)

[Q] 

Названия фильма -глупое. Сам фильм не плох, для одно раза - вполне
[Профиль]  [ЛС] 
Показать сообщения:    
Ответить на тему

Текущее время: Сегодня 06:13

Часовой пояс: GMT + 4



Вы не можете начинать темы
Вы не можете отвечать на сообщения
Вы не можете редактировать свои сообщения
Вы не можете удалять свои сообщения
Вы не можете голосовать в опросах
Вы не можете прикреплять файлы к сообщениям
Вы не можете скачивать файлы

▼ Вниз