ML
     
  Уважаемый Гость!
Вы можете поддержать проект и зарегистрироваться у наших партнеров - онлайн-стратегия MyLands. При регистрации в игре Вы получите код, который сможете активировать после регистрации на pirat.ca и получить 1000 дублонов.

Ваш код:
ef8b3e8cd07bec918273586d22e5aaf18e0ae925
 
     

Одноклассники.ru: НаCLICKай удачу (Павел Худяков) [2013 г., мелодрама, комедия, HDRip] [Лицензия]

Ответить на тему
 
Автор
Сообщение

Пост 12-Фев-2014 17:10

[Q] 

ara1205

-Одноклассники.ru: НаCLICKай удачу-- Производство: Россия
Год выпуска: 2013 г.
Жанр: мелодрама, комедия
Продолжительность: 01:43:58-Режиссер: Павел Худяков-В ролях: Пётр Фёдоров, Фёдор Бондарчук, Корнелия Поляк, Сергей Друзьяк, Тимати, Снуп Догг, Сергей Никоненко, Александр Ревва, Ольга Тумайкина, Семён Стругачев-Описание: Круто, когда есть кнопка, на которую жмешь, и все становится по-твоему! Именно такая попала в руки молодому креативщику и тотальному неудачнику Леше. Теперь у него высокооплачиваемая работа, дорогая машина, стильный гардероб и, конечно, идеальная девушка. Достаточно одного клика! Просто надо знать, куда жать!- -Качество видео: HDRip
Контейнер: AVI
Видео кодек: XviD
Аудио кодек: MP3
Видео: 688x288, 24 fps, 864 kbps avg, 0.182 bit/pixel
Аудио: 48 kHz, MPEG Layer 3, 2 ch, ~128.00 kbps avg
Cубтитры: отсутствуют-
Общее
Полное имя : C:\Users\Ромик\Pictures\Одноклассники\Odnoklassniki.2013.HDRip.745Mb.avi
Формат : AVI
Формат/Информация : Audio Video Interleave
Размер файла : 745 Мбайт
Продолжительность : 1 ч. 43 м.
Общий поток : 1001 Кбит/сек
Программа кодирования : VirtualDubMod 1.5.10.2 (build 2540/release)
Видео
Идентификатор : 0
Формат : MPEG-4 Visual
Профиль формата : Advanced [email protected]
Параметр BVOP формата : 2
Параметр QPel формата : Нет
Параметр GMC формата : Без точки перехода
Параметр матрицы формата : Default (MPEG)
Идентификатор кодека : XVID
Идентификатор кодека/Подсказка : XviD
Продолжительность : 1 ч. 43 м.
Битрейт : 864 Кбит/сек
Ширина : 688 пикселей
Высота : 288 пикселей
Соотношение сторон : 2,40:1
Частота кадров : 24,000 кадра/сек
Цветовое пространство : YUV
Субдискретизация насыщенности : 4:2:0
Битовая глубина : 8 бит
Тип развёртки : Прогрессивная
Метод сжатия : С потерями
Бит/(Пиксели*Кадры) : 0.182
Размер потока : 643 Мбайт (86%)
Библиотека кодирования : XviD 1.2.0.dev47 (UTC 2006-11-01)
Аудио
Идентификатор : 1
Формат : MPEG Audio
Версия формата : Version 1
Профиль формата : Layer 3
Идентификатор кодека : 55
Идентификатор кодека/Подсказка : MP3
Продолжительность : 1 ч. 43 м.
Вид битрейта : Постоянный
Битрейт : 128 Кбит/сек
Каналы : 2 канала
Частота : 48,0 КГц
Метод сжатия : С потерями
Размер потока : 95,2 Мбайт (13%)
Выравнивание : Соединение по промежуткам
Продолжительность промежутка : 42 мс. (1,00 видеокадр)
Время предзагрузки промежутка : 504 мс.
Библиотека кодирования : LAMELAME_MAJOR_VERSI
-
-
Download / Скачать

Хотите скачать бесплатно? Зарегистрируйтесь на сайте (ссылка на регистрацию). Pirat.ca - самый быстрый торрент трекер в рунете!

Как скачивать  ·   Что такое торрент  ·   Рейтинг и ограничения

Ambre

Корсар

Пост 12-Фев-2014 19:26 (спустя 2 часа 15 минут)

[Q] 

ну посмотрим...а то звезд набрали до хрена Спасибо!!! Лови бочку
[Профиль]  [ЛС] 

mitand

Морской Волк

Пост 22-Фев-2014 23:32 (спустя 10 дней)

[Q] 

спасибо автору Спасибо!!!
[Профиль]  [ЛС] 

Роман1412

Морской Волк

Пост 22-Фев-2014 23:42 (спустя 10 минут)

[Q] 

как фильм, кто смотрел. стоит время тратить
[Профиль]  [ЛС] 

Scorpion7474

Флибустьер

Пост 26-Мар-2014 20:40 (спустя 1 месяц 3 дня)

[Q] 

посмотрим скажем Спасибо!!!
[Профиль]  [ЛС] 

Scorpion7474

Флибустьер

Пост 14-Апр-2014 23:39 (спустя 19 дней)

[Q] 

понравился Автору респект!!!
[Профиль]  [ЛС] 

a s d

Шкипер

1

Пост 09-Май-2014 00:23 (спустя 24 дня)

[Q] 

берем комедию амеров копируем добавляем суперактера бондарчюка, жену режиссера-пластиковую куклу с постоянно открытым ртом(работа такая) смешиваем, а да еще ведь надо в бюджет засунут рэпера хозяев и получаем наше родное новорусское кино-искрометную комедию!!!пошел блевну!!!
[Профиль]  [ЛС] 
Показать сообщения:    
Ответить на тему

Текущее время: Сегодня 18:37

Часовой пояс: GMT + 4



Вы не можете начинать темы
Вы не можете отвечать на сообщения
Вы не можете редактировать свои сообщения
Вы не можете удалять свои сообщения
Вы не можете голосовать в опросах
Вы не можете прикреплять файлы к сообщениям
Вы не можете скачивать файлы

▼ Вниз