ML
     
  Уважаемый Гость!
Вы можете поддержать проект и зарегистрироваться у наших партнеров - онлайн-стратегия MyLands. При регистрации в игре Вы получите код, который сможете активировать после регистрации на pirat.ca и получить 1000 дублонов.

Ваш код:
ef8b3e8cd07bec918273586d22e5aaf18e0ae925
 
     

Чемпионы (Дмитрий Дюжев, Артём Аксёненко, Алексей Вакулов, Эмиль Никогосян) [2014 г., спорт, драма, DVDRip] [лицензия]

Ответить на тему
 
Автор
Сообщение

Пост 14-Фев-2014 03:02

[Q] 

Роман81

Штурман

-Чемпионы-- Производство: Россия / Enjoy Movies, Renovatio ent.
Режиссер: Дмитрий Дюжев, Артём Аксёненко, Алексей Вакулов, Эмиль Никогосян
Жанр: спорт, драма
Год выпуска: 2014 г.
Продолжительность: 01:34:07
Российская премьера: 23 января 2014, «Каропрокат»
Дата выхода DVD: 18 февраля 2014, «Lizard Cinema Trade»
Дата выхода Blu-Ray: 18 февраля 2014, «Lizard Cinema Trade»-В ролях: Светлана Ходченкова, Алексей Чадов, Марк Богатырёв, Андрей Смоляков, Константин Крюков, Татьяна Арнтгольц, Таисия Вилкова, Александр Молочников, Максим Виторган, Ангелина Добророднова, Ольга Тумайкина, Андрей Федорцов, Екатерина Климова, Михаил Горевой, Игорь Верник, Дмитрий Губерниев, Виктор Гусев (III), Семен Трескунов, Юлия Гришина, Андрис Лиелайс, Анатолий Лобоцкий, Александр Сазонов, Андрей Лебедев, Тимур Ефременков, Егор Клинаев, Виталий Абдулов, Евгений Шириков-Описание: Пять реальных историй больших побед российских спортсменов. И за каждой победой стоят человеческие истории, в которых переплетаются любовь, предательство, дружба, уважение, труд и вера. Вера в себя, вера в победу.-Сэмпл КиноПоиск
Качество видео: DVDRip
Контейнер: AVI
Видео кодек: XviD
Аудио кодек: AC3
Видео: 720x384 (1.875), 25.000 fps, 1 626 Kbps (0.235 bit/pixel)
Аудио: AC-3, 48.0 KHz, 6 ch, 448 Kbps, CBR
Cубтитры: отсутствуют
Общее
Полное имя : D:\Cham10n1.2014.O.DVDRip.1400Mb.avi
Формат : AVI
Формат/Информация : Audio Video Interleave
Размер файла : 1,37 Гбайт
Продолжительность : 1 ч. 34 м.
Общий поток : 2084 Кбит/сек
Программа кодирования : VirtualDubMod 1.5.10.2 (build 2540/release)
Библиотека кодирования : VirtualDubMod build 2540/release
Видео
Идентификатор : 0
Формат : MPEG-4 Visual
Профиль формата : Advanced [email protected]
Параметр BVOP формата : 2
Параметр QPel формата : Нет
Параметр GMC формата : Без точки перехода
Параметр матрицы формата : Выборочная
Идентификатор кодека : XVID
Идентификатор кодека/Подсказка : XviD
Продолжительность : 1 ч. 34 м.
Битрейт : 1626 Кбит/сек
Ширина : 720 пикселей
Высота : 384 пикселя
Соотношение сторон : 1,85:1
Частота кадров : 25,000 кадров/сек
Цветовое пространство : YUV
Субдискретизация насыщенности : 4:2:0
Битовая глубина : 8 бит
Тип развёртки : Прогрессивная
Метод сжатия : С потерями
Бит/(Пиксели*Кадры) : 0.235
Размер потока : 1,07 Гбайт (78%)
Библиотека кодирования : XviD 1.2.1 (UTC 2008-12-04)
Аудио
Идентификатор : 1
Формат : AC-3
Формат/Информация : Audio Coding 3
Расширение режима : CM (complete main)
Параметр Endianness формата : Big
Идентификатор кодека : 2000
Продолжительность : 1 ч. 34 м.
Вид битрейта : Постоянный
Битрейт : 448 Кбит/сек
Каналы : 6 каналов
Расположение каналов : Front: L C R, Side: L R, LFE
Частота : 48,0 КГц
Битовая глубина : 16 бит
Метод сжатия : С потерями
Размер потока : 302 Мбайт (22%)
Выравнивание : Разделение по промежуткам
Продолжительность промежутка : 40 мс. (1,00 видеокадр)
Время предзагрузки промежутка : 500 мс.
Download / Скачать

Хотите скачать бесплатно? Зарегистрируйтесь на сайте (ссылка на регистрацию). Pirat.ca - самый быстрый торрент трекер в рунете!

Как скачивать  ·   Что такое торрент  ·   Рейтинг и ограничения



Последний раз редактировалось: Роман81 (2014-02-15 07:36), всего редактировалось 1 раз

Пост 15-Фев-2014 08:07 (спустя 1 день 5 часов)

Топик был перенесен из форума Наше кино (Трюм) в форум Новинки (HD|DVD|BD| TV|SAT|PDTV| - Rips)
aleksey99
 

infiniti-r

Корсар

Пост 15-Фев-2014 11:34 (спустя 1 день 8 часов)

[Q] 

Спасибо!!! Супер! Автору респект!!!
[Профиль]  [ЛС] 

AlexM

Корсар

Пост 15-Фев-2014 13:13 (спустя 1 час 39 минут)

[Q] 

спасибо Мне понравилось
[Профиль]  [ЛС] 

lam

Лоцман

Пост 15-Фев-2014 19:12 (спустя 5 часов)

[Q] 

Лично мне понравился фильм. !COOL!
[Профиль]  [ЛС] 

dieselspbrus

Лоцман

Пост 15-Фев-2014 21:52 (спустя 2 часа 39 минут)

[Q] 

Спасибо поржал от души, не знал что у матери мальчика в морозильнике хранятся .......ПОМИДОРЫ!!!!!
а Журова носит "вечернее платье" в спортивной сумке.
ФИЛЬМ откровенное гавно снятое за неделю с кучей киноляпов и выдумок!!!
Выезжает только на "памяти" про великих чемпионов!!!
пс. Могли бы хронику в финале показать!!!
бездарность
[Профиль]  [ЛС] 

butyas

Корсар

Пост 16-Фев-2014 16:05 (спустя 18 часов)

[Q] 

Всёравно посмотреть стоит
[Профиль]  [ЛС] 

congress

Морской Волк

75

Пост 16-Фев-2014 16:37 (спустя 32 минуты)

[Q] 

спасибо за старания! бочка в трюме :)

_________________
Котлеты – самые лучшие пирожки. У них и внутри мясо, и вместо теста – тоже мясо.
[Профиль]  [ЛС] 

_Marks_

Флибустьер

Пост 17-Фев-2014 19:05 (спустя 1 день 2 часа)

[Q] 

прекрасный фильм!!! спасибо! Автору респект!!!
Добавлено спустя 8 минут 46 секунд:
люди,куда админы смотрят??? от куда в комментариях реклама "юлмарта"??? любители "мороженных помидоров"-это понятно,малолетки никчемные! но реклама то как???
[Профиль]  [ЛС] 

hemrylow

Штурман

Пост 19-Фев-2014 21:24 (спустя 2 дня 2 часа)

[Q] 

как это смотреть после сегодняшнего хоккея...фейспалмъ
[Профиль]  [ЛС] 

gremlion

Морской Волк

Пост 22-Фев-2014 21:48 (спустя 3 дня)

[Q] 

давно ждал Автору респект!!!
[Профиль]  [ЛС] 

lend112

Штурман

Пост 03-Мар-2014 20:11 (спустя 8 дней)

[Q] 

спасибо !COOL!
[Профиль]  [ЛС] 
Показать сообщения:    
Ответить на тему

Текущее время: Сегодня 18:40

Часовой пояс: GMT + 4



Вы не можете начинать темы
Вы не можете отвечать на сообщения
Вы не можете редактировать свои сообщения
Вы не можете удалять свои сообщения
Вы не можете голосовать в опросах
Вы не можете прикреплять файлы к сообщениям
Вы не можете скачивать файлы

▼ Вниз