ML
     
  Уважаемый Гость!
Вы можете поддержать проект и зарегистрироваться у наших партнеров - онлайн-стратегия MyLands. При регистрации в игре Вы получите код, который сможете активировать после регистрации на pirat.ca и получить 1000 дублонов.

Ваш код:
ef8b3e8cd07bec918273586d22e5aaf18e0ae925
 
     

Двое (Виктор Татарский) [2011 г., детектив, боевик, SATRip]

Ответить на тему
 
Автор
Сообщение

Пост 07-Янв-2012 17:52

[Q] 

Amethyst

Двое Год выпуска: 2011
Жанр: детектив, боевик
Продолжительность: 01:25:20
Режиссер: Виктор Татарский
В ролях: Павел Делонг, Павел Майков, Валерий Ошомков, Денис Синявский, Игорь Ключников, Юлия Денисова и др.
Описание: Кирилл и Эдуард были лучшими друзьями. Они прошли войну в Афганистане и вернулись оттуда живыми и невредимыми. Смерть часто ходила рядом, смотрела в глаза и пугала своим приходом, но они пережили все кошмары войны и вернулись на гражданку, чтобы больше никогда не встречаться вновь. Кирил превратился в успешного бизнесмена и благодаря своей хватке сумел устроиться в этой сложной и опасной жизни. Эдуард не смог забыть войну, и тяжесть воспоминаний все больше портила гражданскую жизнь. Работы была потеряна, спиртное заняло прочное место в рационе и жизни Эдуарда, его социальный статус падал все ниже с каждым днем. Судьба свела их вместе, чтобы доказать, что бывших друзей не бывает. Кирилл несправедливо обвинен в убийстве. Теперь друзьям предстоит взять расследование в свои руки и выяснить правду...
Источник/Качество: SATRip
Формат: AVI
Видео кодек: XviD
Аудио кодек: MP3
Видео: XviD, 1867 kb/s, 704х384, 25 fps
Аудио: MP3, 192 kb/s, 2 канала, 48.0 KHz

General
Complete name : D:\Торенты\Dvoe.2011 [pirat.ca].avi
Format : AVI
Format/Info : Audio Video Interleave
File size : 1.25 GiB
Duration : 1h 25mn
Overall bit rate : 2 102 Kbps
Writing application : VirtualDubModRus 1.5.10.1 (build 2439/release)
Writing library : VirtualDubMod build 2439/release
Video
ID : 0
Format : MPEG-4 Visual
Format settings, BVOP : 3
Format settings, QPel : No
Format settings, GMC : No warppoints
Format settings, Matrix : Default (H.263)
Muxing mode : Packed bitstream
Codec ID : DX50
Codec ID/Hint : DivX 5
Duration : 1h 25mn
Bit rate : 1 900 Kbps
Width : 704 pixels
Height : 384 pixels
Display aspect ratio : 16:9
Frame rate : 25.000 fps
Color space : YUV
Chroma subsampling : 4:2:0
Bit depth : 8 bits
Scan type : Progressive
Compression mode : Lossy
Bits/(Pixel*Frame) : 0.281
Stream size : 1.13 GiB (90%)
Writing library : DivX 6.8.5 (UTC 2009-08-20)
Audio
ID : 1
Format : MPEG Audio
Format version : Version 1
Format profile : Layer 3
Mode : Joint stereo
Codec ID : 55
Codec ID/Hint : MP3
Duration : 1h 25mn
Bit rate mode : Constant
Bit rate : 192 Kbps
Channel(s) : 2 channels
Sampling rate : 48.0 KHz
Compression mode : Lossy
Stream size : 117 MiB (9%)
Alignment : Split accross interleaves
Interleave, duration : 40 ms (1.00 video frame)
Interleave, preload duration : 500 ms
Download / Скачать

Хотите скачать бесплатно? Зарегистрируйтесь на сайте (ссылка на регистрацию). Pirat.ca - самый быстрый торрент трекер в рунете!

Как скачивать  ·   Что такое торрент  ·   Рейтинг и ограничения



Последний раз редактировалось: Amethyst (2012-09-10 01:19), всего редактировалось 1 раз

Пост 07-Янв-2012 18:55 (спустя 1 час 2 минуты)

Топик был перенесен из форума Наше Кино в форум Новинки (HD|DVD|BD|TV|SAT|PDTV| - Rips)

goxakrauter
 

Dmitri

Лоцман

Пост 12-Янв-2012 20:17 (спустя 5 дней)

[Q] 

спасибо, заценим!!!
[Профиль]  [ЛС] 

ficus42

Корсар

Пост 13-Янв-2012 17:24 (спустя 21 час)

[Q] 

Годится...
[Профиль]  [ЛС] 

Pesok

Гроза морей

Пост 15-Янв-2012 11:51 (спустя 1 день 18 часов)

[Q] 

спасибо - посмотрим

_________________
[Профиль]  [ЛС] 
Показать сообщения:    
Ответить на тему

Текущее время: Сегодня 18:38

Часовой пояс: GMT + 4



Вы не можете начинать темы
Вы не можете отвечать на сообщения
Вы не можете редактировать свои сообщения
Вы не можете удалять свои сообщения
Вы не можете голосовать в опросах
Вы не можете прикреплять файлы к сообщениям
Вы не можете скачивать файлы

▼ Вниз