ML
     
  Уважаемый Гость!
Вы можете поддержать проект и зарегистрироваться у наших партнеров - онлайн-стратегия MyLands. При регистрации в игре Вы получите код, который сможете активировать после регистрации на pirat.ca и получить 1000 дублонов.

Ваш код:
8b29d0f8cd61fe457e59e7df0aa1fab41a2b88b9
 
     

Роман с кокаином (Геннадий Сидоров) [2013 г., драма, DVDRip] [Лицензия]

Ответить на тему
 
Автор
Сообщение

Пост 18-Фев-2014 21:44

[Q] 

mishanya___

-Роман с кокаином--
Производство: Россия
Режиссер: Геннадий Сидоров
Жанр: драма
Год выпуска: 2013 г.
Продолжительность: 01:40:58
Российская премьера: 16 января 2014, «Alti Films»
Дата выхода DVD: 20 февраля 2014, «CD Land»-В ролях:
Игорь Триф, Ксения Собчак, Кирилл Плетнёв, Владимир Яглыч, Галина Звягинцева, Наталья Коляканова, Янис Политов, Валентина Березуцкая, Геннадий Сидоров, Далер Маджидов-Описание:
Вадим Масленников, главный герой кинокартины, — наш современник. Такой же как мы, вернее, как многие из нас. Чей то сын, чей-то друг, чей-то враг, чей-то любимый…
А правильно ли он живет? А как нужно жить? Так, чтобы след на земле для потомков оставить? И не в буквальном смысле землю нашу топтать, а чтобы прожить достойно и самое дорогое не растерять. А нужно ли это вообще? А главное — кому нужно?
Череда извечных вопросов: важных, насущных и очень простых — терзают его мысли, соблазны рвут его душу. Он пытается найти ответы, но попадает в круговорот непонимания, жестокости, безразличия, разочарования и насилия. Насилия над самим собой, над собственным Я.
И все же он будет пытаться жить, любить, страдать, терять и ненавидеть… Но сможет ли он…? И хватит ли у него сил вернуться, откуда обычно возврата нет…
-
Качество видео: DVDRip
Контейнер: AVI
Видео кодек: XviD
Аудио кодек: AC3
Видео: 720x384; 1612 kbps; 25,000 fps; 0.233 Bit/Pixel
Аудио: 448 kbps; 6 ch; 48,0 kHz
General
Complete name : E:\Roman.s.Kokainom.2014.O.DVDRip.1400MB.avi
Format : AVI
Format/Info : Audio Video Interleave
File size : 1.46 GiB
Duration : 1h 40mn
Overall bit rate : 2 069 Kbps
Writing application : VirtualDubMod 1.5.10.3 | www.virtualdub-fr.org || (build 2550/release)
Writing library : VirtualDubMod build 2550/release
Video #0
ID : 0
Format : MPEG-4 Visual
Format profile : Advanced [email protected]
Format settings, BVOP : 2
Format settings, QPel : No
Format settings, GMC : No warppoints
Format settings, Matrix : Default (MPEG)
Codec ID : XVID
Codec ID/Hint : XviD
Duration : 1h 40mn
Bit rate : 1 612 Kbps
Width : 720 pixels
Height : 384 pixels
Display aspect ratio : 1.85:1
Frame rate : 25.000 fps
Color space : YUV
Chroma subsampling : 4:2:0
Bit depth : 8 bits
Scan type : Progressive
Compression mode : Lossy
Bits/(Pixel*Frame) : 0.233
Stream size : 1.14 GiB (78%)
Writing library : XviD 73
Audio #1
ID : 1
Format : AC-3
Format/Info : Audio Coding 3
Mode extension : CM (complete main)
Format settings, Endianness : Big
Codec ID : 2000
Duration : 1h 40mn
Bit rate mode : Constant
Bit rate : 448 Kbps
Channel(s) : 6 channels
Channel positions : Front: L C R, Side: L R, LFE
Sampling rate : 48.0 KHz
Bit depth : 16 bits
Compression mode : Lossy
Stream size : 324 MiB (22%)
Alignment : Split accross interleaves
Interleave, duration : 40 ms (1.00 video frame)
Interleave, preload duration : 500 ms
Download / Скачать

Хотите скачать бесплатно? Зарегистрируйтесь на сайте (ссылка на регистрацию). Pirat.ca - самый быстрый торрент трекер в рунете!

Как скачивать  ·   Что такое торрент  ·   Рейтинг и ограничения

papanj

Легенда

Пост 18-Фев-2014 22:48 (спустя 1 час 4 минуты)

[Q] 

СПАСИБО!!! Глянем..
Автору респект!!! Супер!

_________________
"Не понимаю, зачем думать все время о других..." - "Тебе этого не понять, потому что ты не король..."
Я.Корчак. Король Матиуш Первый
[Профиль]  [ЛС] 

Пост 19-Фев-2014 05:00 (спустя 6 часов)

Топик был перенесен из форума Наше кино (Трюм) в форум Новинки (HD|DVD|BD| TV|SAT|PDTV| - Rips)
kugesan
 

Jek@

Легенда

Пост 19-Фев-2014 06:56 (спустя 8 часов)

[Q] 

Спасибо!!! .
[Профиль]  [ЛС] 

Pana

Морской Волк

Пост 19-Фев-2014 10:05 (спустя 3 часа)

[Q] 

ct Поглянем-поглянем Лови бочку
[Профиль]  [ЛС] 

Мишки

Морской Волк

Пост 19-Фев-2014 14:56 (спустя 4 часа)

[Q] 

О Ксюша Собчак супер актриса!! Да еще название какое оригинально, даже ассоциаций не вызывает.
Ну посмотрим этот трешак.

_________________
Это всего лишь игра, настройся на волну позитива!:)
[Профиль]  [ЛС] 

mishanya___ ®

21469

Пост 19-Фев-2014 15:25 (спустя 29 минут)

[Q] 

Мишки, это скорее о современных проблемах общества... Хотя и не совсем удачно
Марк Агеев - Роман с кокаином [2005 г., FB2 RUS]
[Профиль]  [ЛС] 

Region-89

Гроза морей

550

Пост 19-Фев-2014 16:41 (спустя 1 час 16 минут)

[Q] 

Спасибо!!! заценим!

_________________
[Профиль]  [ЛС] 

Selim

Корсар

Пост 19-Фев-2014 17:54 (спустя 1 час 13 минут)

[Q] 

Актриса Собчак. Можно и не качать даже....
[Профиль]  [ЛС] 

KoSkud

Флибустьер

Пост 19-Фев-2014 18:08 (спустя 13 минут)

[Q] 

тут по-моему один только плюс есть-Собчак в попу,а в остальном-для знатоков герыча и кока,грубо говоря..имхо

_________________
Учись-играя,играя-учись
[Профиль]  [ЛС] 

tango07

Корсар

Пост 19-Фев-2014 18:57 (спустя 48 минут)

[Q] 

о современных проблемах общества
[Профиль]  [ЛС] 

Мишки

Морской Волк

Пост 19-Фев-2014 20:55 (спустя 1 час 57 минут)

[Q] 

фильм, скажем так совсем не пошел,) не моё.

_________________
Это всего лишь игра, настройся на волну позитива!:)
[Профиль]  [ЛС] 

Dimson

Шкипер

Пост 19-Фев-2014 21:50 (спустя 54 минуты)

[Q] 

Хы... релизеру спасибо за труды, но с этой кобылой и качать не буду.
[Профиль]  [ЛС] 

Han.M

Флибустьер

Пост 19-Фев-2014 21:56 (спустя 6 минут)

[Q] 

Собчак в кино... Отечественный кинемотограф решили добить окончательно.... ((((((((((
[Профиль]  [ЛС] 

KoSkud

Флибустьер

Пост 19-Фев-2014 22:16 (спустя 20 минут)

[Q] 

Первый коммент написал после просмотра трейлера,признаюсь честно.За чем-то решил посмотреть и посмотрел без перемотки..Собчак в попу- не оказалось почему-то )) сценарий-для Каннского фестиваля,никак не голливудский.Собчак там играет столько же,сколько и Федя Емельяненко в "Ключ Саламандры",хоть и второй в ролях..минимум кароч....но то,что я до сих пор ещё не могу подобрать слова о фильме,который вот прям только что посмотрел,так как я его осмысливаю до сих пор,говорит о том,что далее я ни фига пока не напишу =) удачи другим (никогда не пробовал ничего,тяжелее травы,если что))

_________________
Учись-играя,играя-учись
[Профиль]  [ЛС] 

UA4HQW

Флибустьер

2528

Пост 23-Фев-2014 10:57 (спустя 3 дня)

[Q] 

Мне не понравился.
Автору респект!!!
[Профиль]  [ЛС] 

platon18

Гроза морей

Пост 24-Фев-2014 08:26 (спустя 21 час)

[Q] 

трешак с лошадью
[Профиль]  [ЛС] 

Scorpion7474

Флибустьер

Пост 24-Фев-2014 23:41 (спустя 15 часов)

[Q] 

спасибо посмотрим Лови бочку
[Профиль]  [ЛС] 

erda

Морской Волк

Пост 26-Фев-2014 13:46 (спустя 1 день 14 часов)

[Q] 

популярная в последнее время тема - взаимоотношения молодежи и наркоты. данная реализация - фуфло никчемное.
[Профиль]  [ЛС] 

SashaSofer

Штурман

Пост 01-Мар-2014 20:46 (спустя 3 дня)

[Q] 

спасибо за раздачу
[Профиль]  [ЛС] 
Показать сообщения:    
Ответить на тему

Текущее время: Сегодня 21:22

Часовой пояс: GMT + 4



Вы не можете начинать темы
Вы не можете отвечать на сообщения
Вы не можете редактировать свои сообщения
Вы не можете удалять свои сообщения
Вы не можете голосовать в опросах
Вы не можете прикреплять файлы к сообщениям
Вы не можете скачивать файлы

▼ Вниз