ML
     
  Уважаемый Гость!
Вы можете поддержать проект и зарегистрироваться у наших партнеров - онлайн-стратегия MyLands. При регистрации в игре Вы получите код, который сможете активировать после регистрации на pirat.ca и получить 1000 дублонов.

Ваш код:
21acd5966619d49ad0b90c3305467b4646cc11a8
 
     

Холодное блюдо (Владимир Нахабцев мл.) [2013 г., криминал, мелодрама, SATRip]

Ответить на тему
 
Автор
Сообщение

Пост 19-Фев-2014 11:34

[Q] 

vasilich619

Флибустьер

-Холодное блюдо-- Производство: Россия
Режиссер: Владимир Нахабцев мл.
Жанр: криминал, мелодрама
Год выпуска: 2013 г.
Продолжительность: 01:31:25
Российская премьера: 15 февраля 2014
В ролях: Евгения Нохрина, Александр Наумов, Алиса Майорова, Михаил Горевой, Татьяна Черкасова, Валерий Новиков, Дмитрий Горевой, Иева Андреевайте, Илья Шакунов...-Описание: Пятнадцать лет назад молодой следователь Александр Астахов довел до суда дело крупного криминального авторитета Демидова. Тот получил восемь лет и поклялся отомстить. И у него это получилось: Астахова обвинили во взяточничестве и сговоре с преступными группировками. Доказать свою невиновность он так и не смог. Следователь отсидел срок, уехал в город, где открыл собственный автосервис, встретил свою любовь и создал семью. Казалось бы, жизнь наладилась, все стало по-другому, но судьба приготовила Астахову новый сюрприз-Сэмпл КиноПоиск
Качество видео: SATRip
Контейнер: AVI
Видео кодек: DivX
Аудио кодек: MP3
Видео: MPEG4, DivX 5, 720x448 (1.607), 25.000 fps, 2 023 Kbps (0.251 bit/pixel)
Аудио: Русский, MP3, 48.0 KHz, 2 ch, 128 Kbps, CBR
Cубтитры: отсутствуют
General
Complete name : H:\TVRip\Холодное блюдо (2013) TVRip\Holodnoe.bljudo..2014.SATRip.avi
Format : AVI
Format/Info : Audio Video Interleave
File size : 1.38 GiB
Duration : 1h 31mn
Overall bit rate : 2 161 Kbps
Writing library : VirtualDub build 35491/release
Video
ID : 0
Format : MPEG-4 Visual
Format settings, BVOP : Yes
Format settings, QPel : No
Format settings, GMC : No warppoints
Format settings, Matrix : Default (H.263)
Muxing mode : Packed bitstream
Codec ID : DX50
Codec ID/Hint : DivX 5
Duration : 1h 31mn
Bit rate : 2 023 Kbps
Width : 720 pixels
Height : 448 pixels
Display aspect ratio : 1.607
Frame rate : 25.000 fps
Resolution : 24 bits
Colorimetry : 4:2:0
Scan type : Progressive
Bits/(Pixel*Frame) : 0.251
Stream size : 1.29 GiB (94%)
Writing library : DivX 6.8.5
Audio
ID : 1
Format : MPEG Audio
Format version : Version 1
Format profile : Layer 3
Codec ID : 55
Codec ID/Hint : MP3
Duration : 1h 31mn
Bit rate mode : Constant
Bit rate : 128 Kbps
Channel(s) : 2 channels
Sampling rate : 48.0 KHz
Resolution : 16 bits
Stream size : 83.7 MiB (6%)
Alignment : Split accross interleaves
Interleave, duration : 40 ms (1.00 video frame)
Interleave, preload duration : 500 ms
Download / Скачать

Хотите скачать бесплатно? Зарегистрируйтесь на сайте (ссылка на регистрацию). Pirat.ca - самый быстрый торрент трекер в рунете!

Как скачивать  ·   Что такое торрент  ·   Рейтинг и ограничения

Pana

Морской Волк

Пост 19-Фев-2014 12:12 (спустя 38 минут)

[Q] 

Фильмец короче говоря На любителя
[Профиль]  [ЛС] 

Пост 19-Фев-2014 12:15 (спустя 2 минуты)

Топик был перенесен из форума Наше кино (Трюм) в форум Новинки (HD|DVD|BD| TV|SAT|PDTV| - Rips)
aleksey99
 

KoSkud

Флибустьер

Пост 19-Фев-2014 18:17 (спустя 6 часов)

[Q] 

гляну,пожалуй.Я любитель ентого дела =) а вдруг и для меня снят? ))

_________________
Учись-играя,играя-учись
[Профиль]  [ЛС] 

maximka2006

Морской Волк

Пост 19-Фев-2014 21:57 (спустя 3 часа)

[Q] 

Спасибо, глянем!
[Профиль]  [ЛС] 

tango07

Корсар

Пост 20-Фев-2014 10:50 (спустя 12 часов)

[Q] 

Спасибо за раздачу!
[Профиль]  [ЛС] 

KoSkud

Флибустьер

Пост 20-Фев-2014 17:26 (спустя 6 часов)

[Q] 

н-да,начало многобещающее,а дальше....фильм для охранников,чтобы смена быстрее пролетала..ИМХО

_________________
Учись-играя,играя-учись
[Профиль]  [ЛС] 

_Marks_

Флибустьер

Пост 21-Фев-2014 16:05 (спустя 22 часа)

[Q] 

Слащавая хрень "на подобие ментовских сериалов" для домохозяек и недалеких....... На любителя
[Профиль]  [ЛС] 

UA4HQW

Флибустьер

2528

Пост 21-Фев-2014 16:35 (спустя 29 минут)

[Q] 

Мне понравилось
Автору респект!!!
[Профиль]  [ЛС] 

jofrei53

Корсар

Пост 28-Май-2014 11:21 (спустя 3 месяца 6 дней)

[Q] 

Спасибо! Посмотрим... Спасибо!!! Автору респект!!!
[Профиль]  [ЛС] 
Показать сообщения:    
Ответить на тему

Текущее время: Сегодня 23:21

Часовой пояс: GMT + 4



Вы не можете начинать темы
Вы не можете отвечать на сообщения
Вы не можете редактировать свои сообщения
Вы не можете удалять свои сообщения
Вы не можете голосовать в опросах
Вы не можете прикреплять файлы к сообщениям
Вы не можете скачивать файлы

▼ Вниз