ML
     
  Уважаемый Гость!
Вы можете поддержать проект и зарегистрироваться у наших партнеров - онлайн-стратегия MyLands. При регистрации в игре Вы получите код, который сможете активировать после регистрации на pirat.ca и получить 1000 дублонов.

Ваш код:
bb0cb47ee786a33f751af5a500dd264c9487bfac
 
     

Быстрее, чем кролики [Расширенная версия] (Дмитрий Дьяченко) [2013 г., комедия, WEB-DLRip][iTunes]

Ответить на тему
 
Автор
Сообщение

Пост 19-Фев-2014 14:43

[Q] 

aleksey99

--Быстрее, чем кролики-- Производство: Россия, Фонд Кино, Key Stone Productions, кинокомпания "Стрела"
Режиссер: Дмитрий Дьяченко
Жанр: комедия
Год выпуска: 2013 г.
Продолжительность: 01:39:11--Мировая премьера: 1 января 2014
Премьера (РФ): 1 января 2014, «DreamTeam»
Дата выхода DVD: 13 февраля 2014, «Мистерия Звука»
Релиз на Blu-Ray: 13 февраля 2014, «Мистерия Звука»--В ролях: Леонид Барац, Александр Демидов, Камиль Ларин, Ростислав Хаит, Игорь Золотовицкий, Екатерина Кузнецова, Артем Смола, Григорий Данцигер, Дмитрий Дибров, Валдис Пельш--Описание: Трое друзей после бурной вечеринки просыпаются в совершенно незнакомом месте в компании незнакомых людей и пытаются понять, как они здесь оказались, кто все эти люди, и что на самом деле произошло накануне…
Что делают и о чем говорят мужчины в такой необычной ситуации?-- --Трейлер--Качество видео: WEB-DLRip
Контейнер: AVI
Видео кодек: XviD
Аудио кодек: AC3
Видео: 720x304 (2.37:1), 24 fps, XviD build 50 ~1709 kbps avg, 0.33 bit/pixel
Аудио: 48 kHz, AC3 Dolby Digital, 3/2 (L,C,R,l,r) + LFE ch, ~384 kbps
Cубтитры: Отсутствуют
Общее
Полное имя : H:\Torrent2\Krol1k1.2014.O.WEB-DLRip.1.46Gb_[pirat.ca].avi
Формат : AVI
Формат/Информация : Audio Video Interleave
Размер файла : 1,46 Гбайт
Продолжительность : 1 ч. 39 м.
Общий поток : 2103 Кбит/сек
Программа кодирования : VirtualDubMod 1.5.10.2 (build 2540/release)
Библиотека кодирования : VirtualDubMod build 2540/release
Видео
Идентификатор : 0
Формат : MPEG-4 Visual
Профиль формата : Advanced [email protected]
Параметр BVOP формата : 2
Параметр QPel формата : Нет
Параметр GMC формата : Без точки перехода
Параметр матрицы формата : Выборочная
Идентификатор кодека : XVID
Идентификатор кодека/Подсказка : XviD
Продолжительность : 1 ч. 39 м.
Битрейт : 1710 Кбит/сек
Ширина : 720 пикселей
Высота : 304 пикселя
Соотношение сторон : 2,35:1
Частота кадров : 24,000 кадра/сек
Цветовое пространство : YUV
Субдискретизация насыщенности : 4:2:0
Битовая глубина : 8 бит
Тип развёртки : Прогрессивная
Метод сжатия : С потерями
Бит/(Пиксели*Кадры) : 0.325
Размер потока : 1,18 Гбайт (81%)
Библиотека кодирования : XviD 1.2.1 (UTC 2008-12-04)
Аудио
Идентификатор : 1
Формат : AC-3
Формат/Информация : Audio Coding 3
Расширение режима : CM (complete main)
Параметр Endianness формата : Big
Идентификатор кодека : 2000
Продолжительность : 1 ч. 39 м.
Вид битрейта : Постоянный
Битрейт : 384 Кбит/сек
Каналы : 6 каналов
Расположение каналов : Front: L C R, Side: L R, LFE
Частота : 48,0 КГц
Битовая глубина : 16 бит
Метод сжатия : С потерями
Размер потока : 272 Мбайт (18%)
Выравнивание : Разделение по промежуткам
Продолжительность промежутка : 42 мс. (1,00 видеокадр)
Время предзагрузки промежутка : 500 мс.
Расширенная версия! Длиннее DVD-шной приблизительно на 7 минут - альтернативная концовка фильма!
Download / Скачать

Хотите скачать бесплатно? Зарегистрируйтесь на сайте (ссылка на регистрацию). Pirat.ca - самый быстрый торрент трекер в рунете!

Как скачивать  ·   Что такое торрент  ·   Рейтинг и ограничения

Пост 19-Фев-2014 17:09 (спустя 2 часа 26 минут)

Топик был перенесен из форума Наше кино (Трюм) в форум Новинки (HD|DVD|BD| TV|SAT|PDTV| - Rips)
kugesan
 

Ambre

Корсар

Пост 19-Фев-2014 18:15 (спустя 3 часа)

[Q] 

дааа...я и обычную версию до 30 минут дотерпел...а тут еще и расширенная)
[Профиль]  [ЛС] 

Voyse

Штурман

Пост 19-Фев-2014 18:34 (спустя 18 минут)

[Q] 

да, фильм вышел конечно откровенно плохой, к предыдущим и близко не поставить. не качайте
!erchine писал(а):

Мат на трекере запрещен.
[Профиль]  [ЛС] 

tango07

Корсар

Пост 19-Фев-2014 18:53 (спустя 19 минут)

[Q] 

Очень хороший фильм!!!
[Профиль]  [ЛС] 

losdebillos

Лоцман

Пост 19-Фев-2014 19:07 (спустя 14 минут)

[Q] 

Немцев надо было побольше. а так - норм. Ребята в своём духе. "О чем говорят..." - это ШЕДЕВР!!! "О чем ЕЩЁ говорят" - [email protected] (исключая последний кадр с тещей и женой). это - посередине: продукт плэйсмента поменьше чам в [email protected], и картинка качественнее. а юмор, - так. но хоть не откровенное бабкосдиралово как в ситуации с [email protected]..
видно - старались
ИМХО
[Профиль]  [ЛС] 

hevard

Гроза морей

2110

Пост 19-Фев-2014 20:17 (спустя 1 час 9 минут)

[Q] 

495625исключая последний кадр с тещей и женой
Этот кадр "просто радует"!!! ))))))))))

_________________
-Я старый пират и не знаю слов лицензионного соглашения...
[Профиль]  [ЛС] 

chtv

Шкипер

Пост 19-Фев-2014 22:14 (спустя 1 час 56 минут)

[Q] 

Сегодня посмотрел только. Стандартную версию. Шутки как всегда в стиле "Квартет И".Такие диалоги старых друзьй из советского двора "с полуслова",ситуации и нюансы реальной жизни. Закрутили, конечно, но народу видать не хватало в конце веселого хаппиэнда (смотрел dvd версию).
[Профиль]  [ЛС] 

srg078rus

Корсар

97

Пост 20-Фев-2014 17:44 (спустя 19 часов)

[Q] 

Лови бочку

_________________
[Профиль]  [ЛС] 

Азарова

Лоцман

Пост 20-Фев-2014 17:59 (спустя 15 минут)

[Q] 

бред((( полный
[Профиль]  [ЛС] 

MaXoR

Флибустьер

1475

Пост 20-Фев-2014 18:29 (спустя 29 минут)

[Q] 

Хороший фильм. Кому не нравится: чемодан - вокзал - сериалы ТНТ. Или Андреасяновские "шедевры".

_________________
Живы будем - не помрем!
[Профиль]  [ЛС] 

Kedrick

Штурман

Пост 21-Фев-2014 19:04 (спустя 1 день)

[Q] 

Согласен с предыдущим оратором. Если кто-то прется от андреасяновщины и считает те высеры шедеврами, как и глаголет реклама, то вам не сюда, плывите мимо и не срите в каментах.
Квартет И это Интеллектуальное шоу :)
[Профиль]  [ЛС] 

egokdm

Гроза морей

1362

Пост 21-Фев-2014 19:45 (спустя 41 минута)

[Q] 

Спасибо!!!
[Профиль]  [ЛС] 

Alikbest

Шкипер

Пост 24-Фев-2014 12:51 (спустя 2 дня 17 часов)

[Q] 

Уснул после 10 минут.Хз,мот просто спать хотелось)А мот не секу я в настоящем искусстве WTF!
[Профиль]  [ЛС] 

skiff-m

Корсар

318

Пост 01-Мар-2014 14:02 (спустя 5 дней)

[Q] 

Очередной пшик от ребят. Хотя это и определенно лучше второй части "О чем говорят мужчины", но с первой даже близко не валялась

_________________
[Профиль]  [ЛС] 

erda

Морской Волк

Пост 02-Мар-2014 16:51 (спустя 1 день 2 часа)

[Q] 

пересматривал несколько раз, шикарно. кому прет юмор квартета - тому фильм в жилу. остальным можно не качать
[Профиль]  [ЛС] 

ntvsx

Шкипер

Пост 06-Мар-2014 18:58 (спустя 4 дня)

[Q] 

Честно пытался посмотреть - с третьего раза досмотрел минуты до 15-й - далее не смог физически. Ну не по мне такой кинематограф.
[Профиль]  [ЛС] 

ягжин

Гроза морей

Пост 06-Мар-2014 19:02 (спустя 4 минуты)

[Q] 

Фильм не катит!
[Профиль]  [ЛС] 

siegga

Лоцман

Пост 06-Мар-2014 20:43 (спустя 1 час 40 минут)

[Q] 

шутки отличные но фильм говно.
[Профиль]  [ЛС] 

tse

Морской Волк

Пост 06-Мар-2014 21:23 (спустя 40 минут)

[Q] 

Скоро выходит следующая часть - "о чем еще говорят кролики"!
[Профиль]  [ЛС] 

Север77

Пост 07-Мар-2014 06:40 (спустя 9 часов)

[Q] 

Фильм хороший, но где альтернативная концовка? Именно с такой концовкой фильм и шел в кинотеатрах.
[Профиль]  [ЛС] 

skula

Шкипер

Пост 07-Мар-2014 23:30 (спустя 16 часов)

[Q] 

не понравился!!!
[Профиль]  [ЛС] 
Показать сообщения:    
Ответить на тему

Текущее время: Сегодня 02:18

Часовой пояс: GMT + 4



Вы не можете начинать темы
Вы не можете отвечать на сообщения
Вы не можете редактировать свои сообщения
Вы не можете удалять свои сообщения
Вы не можете голосовать в опросах
Вы не можете прикреплять файлы к сообщениям
Вы не можете скачивать файлы

▼ Вниз