ML
     
  Уважаемый Гость!
Вы можете поддержать проект и зарегистрироваться у наших партнеров - онлайн-стратегия MyLands. При регистрации в игре Вы получите код, который сможете активировать после регистрации на pirat.ca и получить 1000 дублонов.

Ваш код:
4399ab8611ee7f8a22949d2ee7634160dd2db7e0
 
     

Лед (Павел Дроздов) [2014 г., драма, семейный, спорт, SATRip]

Ответить на тему
 
Автор
Сообщение

Пост 22-Фев-2014 17:02

[Q] 

Resident

-Лед-- Производство: Россия
Режиссер: Павел Дроздов
Жанр: драма, семейный, спорт
Год выпуска: 2014 г.
Продолжительность: 01:30:00
В ролях: Иван Краско, Александр Половцев, Александр Морозов, Елена Соколова, Дмитрий Чистяков-Описание: Саша - юный и дерзкий хоккеист. После того как его выгнали из команды, он с матерью-врачом переезжает в другой город. Здесь ему и его матери предстоит не только стать частью своей новой команды, но и построить личную жизнь и найти взаимопонимание.-
Качество видео: SATRip
Контейнер: AVI
Видео кодек: DivX
Аудио кодек: MP3
Видео: 720x304 (2.35:1), 2150 kbit/s, 25fps, 0.393 bit / pix
Аудио: Rus: 48kHz, MP3, 2 ch, 128 Кбит/с
Cубтитры: отсутствуют
Общее
Полное имя : W:\Led.2014.SATRip.avi
Формат : AVI
Формат/Информация : Audio Video Interleave
Размер файла : 1,37 Гбайт
Продолжительность : 1 ч. 25 м.
Общий поток : 2288 Кбит/сек
Библиотека кодирования : VirtualDub build 35491/release
Видео
Идентификатор : 0
Формат : MPEG-4 Visual
Параметр BVOP формата : 1
Параметр QPel формата : Нет
Параметр GMC формата : Без точки перехода
Параметр матрицы формата : Default (H.263)
Режим смешивания : Сжатый битовый поток
Идентификатор кодека : DX50
Идентификатор кодека/Подсказка : DivX 5
Продолжительность : 1 ч. 25 м.
Битрейт : 2151 Кбит/сек
Ширина : 720 пикс.
Высота : 304 пикс.
Соотношение сторон : 2,35:1
Частота кадров : 25,000 кадр/сек
Цветовое пространство : YUV
Подвыборка цветности : 4:2:0
Битовая глубина : 8 бит
Тип развёртки : Прогрессивная
Метод сжатия : С потерями
Бит/(Пиксели*Кадры) : 0.393
Размер потока : 1,29 Гбайт (94%)
Библиотека кодирования : DivX 6.8.5 (UTC 2009-08-20)
Аудио
Идентификатор : 1
Формат : MPEG Audio
Версия формата : Version 1
Профиль формата : Layer 3
Режим : Joint stereo
Расширение режима : MS Stereo
Идентификатор кодека : 55
Идентификатор кодека/Подсказка : MP3
Продолжительность : 1 ч. 25 м.
Вид битрейта : Постоянный
Битрейт : 128 Кбит/сек
Канал(ы) : 2 канала(ов)
Частота : 48,0 КГц
Метод сжатия : С потерями
Размер потока : 78,4 Мбайт (6%)
Выравнивание : Разделение по промежуткам
Продолжительность промежутка : 40 мс. (1,00 видеокадр)
Время предзагрузки промежутка : 500 ms
Download / Скачать

Хотите скачать бесплатно? Зарегистрируйтесь на сайте (ссылка на регистрацию). Pirat.ca - самый быстрый торрент трекер в рунете!

Как скачивать  ·   Что такое торрент  ·   Рейтинг и ограничения

Пост 22-Фев-2014 18:21 (спустя 1 час 19 минут)

Топик был перенесен из форума Наше кино (Трюм) в форум Новинки (HD|DVD|BD| TV|SAT|PDTV| - Rips)
kugesan
 

kinstintin

Гроза морей

Пост 22-Фев-2014 19:41 (спустя 2 часа 39 минут)

[Q] 

Спасибо!
Посмотрю очередной шедевр нашего кинематографа.
Посмотрю, что получилось
[Профиль]  [ЛС] 
Показать сообщения:    
Ответить на тему

Текущее время: Сегодня 10:45

Часовой пояс: GMT + 4



Вы не можете начинать темы
Вы не можете отвечать на сообщения
Вы не можете редактировать свои сообщения
Вы не можете удалять свои сообщения
Вы не можете голосовать в опросах
Вы не можете прикреплять файлы к сообщениям
Вы не можете скачивать файлы

▼ Вниз