ML
     
  Уважаемый Гость!
Вы можете поддержать проект и зарегистрироваться у наших партнеров - онлайн-стратегия MyLands. При регистрации в игре Вы получите код, который сможете активировать после регистрации на pirat.ca и получить 1000 дублонов.

Ваш код:
2a3da67fd641d69eeebb7cb965232435a70eaa24
 
     

Параллельные миры (Ермек Аманшаев) [2013 г., мелодрама, DVDRip][Лицензия]

Ответить на тему
 
Автор
Сообщение

Пост 24-Фев-2014 11:52

[Q] 

aleksey99

--Параллельные миры--«День ценою в жизнь. Поступок, стоящий судьбы...»-- Производство: Россия, Казахстан / Eurasia Film Production, Интерфест
Режиссер: Ермек Аманшаев
Жанр: мелодрама
Год выпуска: 2013 г.
Продолжительность: 01:24:30--Российская премьера: 26 сентября 2013, «Интерфест»
Дата выхода DVD: 17 декабря 2013, «CD Land»--В ролях: Алена Бабенко, Берик Айтжанов, Евгений Стычкин, Дастен Шакиров, Александра Морозова, Арман Асенов, Алия Телебарисова, Бибигуль Суюншалина, Ольга Коржева--Описание: Она одинока. Он случайно оказывается на ее балконе. Завязывается разговор, потом танец, потом странная перестановка в комнате — и все в её жизни меняется. Через балкон он нечаянно находит путь к её сердцу, через балкон он уходит, проникнув и изменив всё в глубинах её души.-- --Качество видео: DVDRip
Контейнер: AVI
Видео кодек: XviD
Аудио кодек: AC3
Видео: 720x400 (1.80:1), 25 fps, XviD build 50 ~2049 kbps avg, 0.28 bit/pixel
Аудио: 48 kHz, AC3 Dolby Digital, 3/2 (L,C,R,l,r) + LFE ch, ~256 kbps
Cубтитры: Отсутствуют
Общее
Полное имя : H:\Torrent2\Paralleljnye.miry.2013.O.DVDRip.1400Mb_[pirat.ca].avi
Формат : AVI
Формат/Информация : Audio Video Interleave
Размер файла : 1,37 Гбайт
Продолжительность : 1 ч. 24 м.
Общий поток : 2316 Кбит/сек
Программа кодирования : VirtualDubMod 1.5.10.3 | www.virtualdub-fr.org || (build 2550/release)
Библиотека кодирования : VirtualDubMod build 2550/release
Видео
Идентификатор : 0
Формат : MPEG-4 Visual
Профиль формата : Advanced [email protected]
Параметр BVOP формата : 2
Параметр QPel формата : Нет
Параметр GMC формата : Без точки перехода
Параметр матрицы формата : Default (MPEG)
Идентификатор кодека : XVID
Идентификатор кодека/Подсказка : XviD
Продолжительность : 1 ч. 24 м.
Битрейт : 2050 Кбит/сек
Ширина : 720 пикселей
Высота : 400 пикселей
Соотношение сторон : 16:9
Частота кадров : 25,000 кадров/сек
Цветовое пространство : YUV
Субдискретизация насыщенности : 4:2:0
Битовая глубина : 8 бит
Тип развёртки : Прогрессивная
Метод сжатия : С потерями
Бит/(Пиксели*Кадры) : 0.285
Размер потока : 1,21 Гбайт (89%)
Библиотека кодирования : XviD 1.2.1 (UTC 2008-12-04)
Аудио
Идентификатор : 1
Формат : AC-3
Формат/Информация : Audio Coding 3
Расширение режима : CM (complete main)
Параметр Endianness формата : Big
Идентификатор кодека : 2000
Продолжительность : 1 ч. 24 м.
Вид битрейта : Постоянный
Битрейт : 256 Кбит/сек
Каналы : 6 каналов
Расположение каналов : Front: L C R, Side: L R, LFE
Частота : 48,0 КГц
Битовая глубина : 16 бит
Метод сжатия : С потерями
Размер потока : 155 Мбайт (11%)
Выравнивание : Разделение по промежуткам
Продолжительность промежутка : 40 мс. (1,00 видеокадр)
Время предзагрузки промежутка : 500 мс.
Download / Скачать

Хотите скачать бесплатно? Зарегистрируйтесь на сайте (ссылка на регистрацию). Pirat.ca - самый быстрый торрент трекер в рунете!

Как скачивать  ·   Что такое торрент  ·   Рейтинг и ограничения

andrew555777

Штурман

Пост 24-Фев-2014 12:29 (спустя 37 минут)

[Q] 

Как патриоту Казахстана "будем посмотреть".Может,что-нибудь неплохое сварганили.Аннотация,вроде бы как,- философичная...
Добавлено спустя 9 минут 59 секунд:
Оказывается "Ликвидатор" и "Сказ о розовом зайце" тоже его. ay Есть большая надежда,что получится ничего.
Снимать человек умеет. ah

_________________
С уважением,andrew555777
[Профиль]  [ЛС] 

Пост 24-Фев-2014 17:14 (спустя 4 часа)

Топик был перенесен из форума Наше кино (Трюм) в форум Новинки (HD|DVD|BD| TV|SAT|PDTV| - Rips)
kugesan
 

grubov

Морской Волк

54

Пост 25-Фев-2014 10:39 (спустя 22 часа)

[Q] 

Я чуть не заснул, пока смотрел))
[Профиль]  [ЛС] 

cerber73

Морской Волк

Пост 27-Фев-2014 13:02 (спустя 2 дня 2 часа)

[Q] 

Спасибо!!! глянем Автору респект!!!
[Профиль]  [ЛС] 

lexaspirit

Пост 05-Фев-2016 00:39 (спустя 1 год 11 месяцев)

[Q] 

Середина фильма была похожа на игонию судьбы. В целом для любителей казахстанского кино понравится, но для меня мимо. Второй раз смотреть бы не стал

_________________
-------------------- ----------------------
[Профиль]  [ЛС] 
Показать сообщения:    
Ответить на тему

Текущее время: Сегодня 01:16

Часовой пояс: GMT + 4



Вы не можете начинать темы
Вы не можете отвечать на сообщения
Вы не можете редактировать свои сообщения
Вы не можете удалять свои сообщения
Вы не можете голосовать в опросах
Вы не можете прикреплять файлы к сообщениям
Вы не можете скачивать файлы

▼ Вниз