ML
     
  Уважаемый Гость!
Вы можете поддержать проект и зарегистрироваться у наших партнеров - онлайн-стратегия MyLands. При регистрации в игре Вы получите код, который сможете активировать после регистрации на pirat.ca и получить 1000 дублонов.

Ваш код:
93dbf9fbdfa06c41d3b5a2c3921149ba36168c41
 
     

Разрешите тебя поцеловать... на свадьбе (Мария Сергеенкова) [2013 г., комедия, DVDRip]«Lizard Cinema Trade»

Ответить на тему
 
Автор
Сообщение

Пост 03-Мар-2014 15:53

[Q] 

Resident

-Разрешите тебя поцеловать... на свадьбе-- Производство: Россия Грин-фильм
Режиссер: Мария Сергеенкова
Жанр: комедия
Год выпуска: 2013 г.
Продолжительность: 01:28:05
Дата выхода DVD: 12 ноября 2013, «Lizard Cinema Trade»
В ролях: Мария Куликова, Игорь Лифанов, Серафима Низовская, Борис Щербаков, Михаил Трясоруков, Сергей Лосев-Описание: Прошел год после событий фильма «Разрешите тебя поцеловать…снова», в которой Власов с честью вышел из истории с «генеральской внучкой». Теперь он восстановлен в воинском звании. Как и было обещано, Власов переведен со всем семейством в часть «поближе к Москве». Мы встречаемся с нашими героями Григорием, его возлюбленной Наташей и дочерью Машей в тот момент, когда они заселяются в полученную квартиру. Вся семья счастлива и Власов говорит о том, что теперь на новом месте службы и в новой квартире можно и про свадьбу подумать. Предложение-то он сделал давно, а вот с переездами и сменой мест службы до официального бракосочетания времени и не нашлось. «Разрешите пригласить тебя в ЗАГС», - заявляет Власов. И началась «предсвадебная» круговерть...-
Качество видео: DVDRip
Контейнер: AVI
Видео кодек: XviD
Аудио кодек: AC3
Видео: 720x400 (1.80:1), 25 fps, XviD build 50 ~1956 kbps avg, 0.27 bit/pixel
Аудио: 48 kHz, AC3 Dolby Digital, 2/0 (L,R) ch, ~256 kbps
Cубтитры: отсутствуют
Общее
Полное имя : W:\Razreshite.tebya.pocelovatj.na.svadjbe.2013.DVDRip.avi
Формат : AVI
Формат/Информация : Audio Video Interleave
Размер файла : 1,37 Гбайт
Продолжительность : 1 ч. 28 м.
Общий поток : 2222 Кбит/сек
Программа кодирования : VirtualDubMod 1.5.10.3 | (build 2550/release)
Библиотека кодирования : VirtualDubMod build 2550/release
Видео
Идентификатор : 0
Формат : MPEG-4 Visual
Профиль формата : Advanced [email protected]
Параметр BVOP формата : 2
Параметр QPel формата : Нет
Параметр GMC формата : Без точки перехода
Параметр матрицы формата : Default (MPEG)
Идентификатор кодека : XVID
Идентификатор кодека/Подсказка : XviD
Продолжительность : 1 ч. 28 м.
Битрейт : 1956 Кбит/сек
Ширина : 720 пикс.
Высота : 400 пикс.
Соотношение сторон : 16:9
Частота кадров : 25,000 кадр/сек
Цветовое пространство : YUV
Подвыборка цветности : 4:2:0
Битовая глубина : 8 бит
Тип развёртки : Прогрессивная
Метод сжатия : С потерями
Бит/(Пиксели*Кадры) : 0.272
Размер потока : 1,20 Гбайт (88%)
Библиотека кодирования : XviD 1.2.1 (UTC 2008-12-04)
Аудио
Идентификатор : 1
Формат : AC-3
Формат/Информация : Audio Coding 3
Расширение режима : CM (complete main)
Идентификатор кодека : 2000
Продолжительность : 1 ч. 28 м.
Вид битрейта : Постоянный
Битрейт : 256 Кбит/сек
Канал(ы) : 2 канала(ов)
Расположение каналов : Front: L R
Частота : 48,0 КГц
Битовая глубина : 16 бит
Метод сжатия : С потерями
Размер потока : 161 Мбайт (12%)
Выравнивание : Разделение по промежуткам
Продолжительность промежутка : 40 мс. (1,00 видеокадр)
Время предзагрузки промежутка : 500 ms
Download / Скачать

Хотите скачать бесплатно? Зарегистрируйтесь на сайте (ссылка на регистрацию). Pirat.ca - самый быстрый торрент трекер в рунете!

Как скачивать  ·   Что такое торрент  ·   Рейтинг и ограничения

Пост 03-Мар-2014 18:03 (спустя 2 часа 10 минут)

Топик был перенесен из форума Наше кино (Трюм) в форум Новинки (HD|DVD|BD| TV|SAT|PDTV| - Rips)
kugesan
 

andryxa19

Лоцман

Пост 03-Мар-2014 18:49 (спустя 2 часа 56 минут)

[Q] 

скорость в студию
[Профиль]  [ЛС] 

pinokio65

Матрос

Пост 07-Мар-2014 09:47 (спустя 3 дня)

[Q] 

Спасибо! Качаю, посмотрим!
[Профиль]  [ЛС] 

ягжин

Гроза морей

Пост 07-Мар-2014 13:25 (спустя 3 часа)

[Q] 

На любителя Скорость как у черепахи Жене понравилось!
[Профиль]  [ЛС] 

Selim

Корсар

Пост 07-Мар-2014 18:47 (спустя 5 часов)

[Q] 

Позитивная такая киношка. Пусть наивная в основном, но без раздражающих своей глупостью сцен. Разок посмотреть можно.
[Профиль]  [ЛС] 

druuun10

Лоцман

Пост 10-Мар-2014 20:40 (спустя 3 дня)

[Q] 

Заметил,что в последнее время скорость совсем ни какая.Сутками фильм качается.
[Профиль]  [ЛС] 

UA4HQW

Флибустьер

2528

Пост 24-Мар-2014 09:10 (спустя 13 дней)

[Q] 

Мне понравилось Автору респект!!!
[Профиль]  [ЛС] 

Scorpion7474

Флибустьер

Пост 07-Апр-2014 13:39 (спустя 14 дней)

[Q] 

спасибо посмотрим да скорость не очень
[Профиль]  [ЛС] 
Показать сообщения:    
Ответить на тему

Текущее время: Сегодня 20:22

Часовой пояс: GMT + 4



Вы не можете начинать темы
Вы не можете отвечать на сообщения
Вы не можете редактировать свои сообщения
Вы не можете удалять свои сообщения
Вы не можете голосовать в опросах
Вы не можете прикреплять файлы к сообщениям
Вы не можете скачивать файлы

▼ Вниз