ML
     
  Уважаемый Гость!
Вы можете поддержать проект и зарегистрироваться у наших партнеров - онлайн-стратегия MyLands. При регистрации в игре Вы получите код, который сможете активировать после регистрации на pirat.ca и получить 1000 дублонов.

Ваш код:
bb0cb47ee786a33f751af5a500dd264c9487bfac
 
     

Чек (Александр Бородянский, Борис Гиллер) [2000 г., боевик, DVDRip]

Ответить на тему
 
Автор
Сообщение

Пост 12-Мар-2014 21:49

[Q] 

Мархуз

-Чек-- Производство: Россия
Режиссер: Александр Бородянский, Борис Гиллер
Жанр: боевик
Год выпуска: 2000 г.
Продолжительность: 01:40:24
В ролях: Николай Фоменко, Николай Расторгуев, Армандс Нейландс-Яунземс, Алексей Макаров, Ольга Будина, Валерий Афанасьев, Роман Радов, Юлия Рутберг, Ержан Беркимбаев, Александра Твердохлиб-Описание: Русский богатырь Илья и казахский компьютерный вундеркинд Акежан – сводные братья. Пока их мамаша колесит по ближнему и дальнему зарубежью, племянничков воспитывает дядя-полковник по фамилии Расторгуев. Связанный с высокими чинами из МВД, он в курсе опасных тайн и однажды решается на рискованную авантюру, чтобы раздобыть денег на операцию Акежану. Чек на пять миллионов долларов – приманка и для мафии во главе с их шикарной леди-боссом, и для блюстителей закона. Но братьям вместе с опекающим их опером «Брюнетом» и детдомовкой Соней нельзя проиграть…-Качество видео: DVDRip
Контейнер: AVI
Видео кодек: XviD
Аудио кодек: MP3
Видео: 512x400 (1.28:1), 25 fps, XviD build 50 ~904 kbps, 0.177 bit/pixel
Аудио: 48 kHz, MPEG Layer 3, 2 ch, ~128.00 kbps
Cубтитры: отсутствуют
Общее
Полное имя : E:\Torrent\Chek_[Pirat.ca].torrent.avi
Формат : AVI
Формат/Информация : Audio Video Interleave
Размер файла : 748 Мбайт
Продолжительность : 1 ч. 40 м.
Общий поток : 1042 Кбит/сек
Программа кодирования : VirtualDubMod 1.5.10.2 (build 2540/release)
Библиотека кодирования : VirtualDubMod build 2540/release
Видео
Идентификатор : 0
Формат : MPEG-4 Visual
Профиль формата : Advanced [email protected]
Параметр BVOP формата : 1
Параметр QPel формата : Нет
Параметр GMC формата : Без точки перехода
Параметр матрицы формата : Default (MPEG)
Идентификатор кодека : XVID
Идентификатор кодека/Подсказка : XviD
Продолжительность : 1 ч. 40 м.
Битрейт : 904 Кбит/сек
Ширина : 512 пикселей
Высота : 400 пикселей
Соотношение сторон : 1,280
Частота кадров : 25,000 кадров/сек
Цветовое пространство : YUV
Субдискретизация насыщенности : 4:2:0
Битовая глубина : 8 бит
Тип развёртки : Прогрессивная
Метод сжатия : С потерями
Бит/(Пиксели*Кадры) : 0.177
Размер потока : 649 Мбайт (87%)
Библиотека кодирования : XviD 1.2.1 (UTC 2008-12-04)
Аудио
Идентификатор : 1
Формат : MPEG Audio
Версия формата : Version 1
Профиль формата : Layer 3
Идентификатор кодека : 55
Идентификатор кодека/Подсказка : MP3
Продолжительность : 1 ч. 40 м.
Вид битрейта : Постоянный
Битрейт : 128 Кбит/сек
Каналы : 2 канала
Частота : 48,0 КГц
Метод сжатия : С потерями
Размер потока : 91,9 Мбайт (12%)
Выравнивание : Соединение по промежуткам
Продолжительность промежутка : 40 мс. (1,00 видеокадр)
Время предзагрузки промежутка : 504 мс.
Библиотека кодирования : LAME3.98r
Настройки программы : -m s -V 4 -q 2 -lowpass 17 -b 128
Раздача с 15.00 до 3.30 (время московское)
Download / Скачать

Хотите скачать бесплатно? Зарегистрируйтесь на сайте (ссылка на регистрацию). Pirat.ca - самый быстрый торрент трекер в рунете!

Как скачивать  ·   Что такое торрент  ·   Рейтинг и ограничения

Scorpion7474

Флибустьер

Пост 27-Мар-2014 20:41 (спустя 14 дней)

[Q] 

даа ни одного отзыва. ну что ж посмотрю скажу
[Профиль]  [ЛС] 

Мархуз ®

4507

Пост 31-Мар-2014 02:51 (спустя 3 дня)

[Q] 

Scorpion7474, ну как? посмотрел? cx

_________________

Счастье для всех, даром, и пусть никто не уйдёт обиженный
[Профиль]  [ЛС] 

Scorpion7474

Флибустьер

Пост 04-Апр-2014 19:28 (спустя 4 дня)

[Q] 

дааа голимый боевик 90 х
Добавлено спустя 1 минута 9 секунд:
смотрел тупо на перемотке
[Профиль]  [ЛС] 
Показать сообщения:    
Ответить на тему

Текущее время: Сегодня 02:20

Часовой пояс: GMT + 4



Вы не можете начинать темы
Вы не можете отвечать на сообщения
Вы не можете редактировать свои сообщения
Вы не можете удалять свои сообщения
Вы не можете голосовать в опросах
Вы не можете прикреплять файлы к сообщениям
Вы не можете скачивать файлы

▼ Вниз