ML
     
  Уважаемый Гость!
Вы можете поддержать проект и зарегистрироваться у наших партнеров - онлайн-стратегия MyLands. При регистрации в игре Вы получите код, который сможете активировать после регистрации на pirat.ca и получить 1000 дублонов.

Ваш код:
dbd0d701284cde74a1f34d06ce20b7bc75a73e75
 
     

Нереальная любовь (Арман Геворгян) [2014, комедия, DVDRip] Лицензия

Ответить на тему
 
Автор
Сообщение

Пост 14-Мар-2014 23:03

[Q] 

mrblackdevil

Лоцман

Нереальная любовь- Год выпуска: 2014
Жанр: комедия
Выпущено: Россия / Dreamteam Media
Продолжительность: 01:19:50
Перевод: Не требуется [Лицензия]-В ролях: Марина Александрова, Равшана Куркова, Егор Бероев, Гоша Куценко, Егор Пазенко, Игорь Верник, Янина Студилина, Оскар Кучера, Дмитрий Ендальцев, Анна Щербинина ...-Режиссер: Арман Геворгян-Рейтинг на IMDB: ~7.8/10

Рейтинг на Кинопоиск.RU: ~ 6.10-О фильме: Мира и Ольга когда-то учились в одном классе, и спустя 10 лет случайно встречаются вновь. Светская львица решает наладить личную жизнь одноклассницы и помогает ей превратиться из наивной серой мышки в роковую красотку. Девушки отправляются в Сочи, где проходит бизнес — форум, в поисках единственного и неповторимого. Московские красотки без труда покоряют мужские сердца, попав в водоворот романтических приключений.-Качество: DVDRip
Формат: AVI
Видео кодек: Xvid
Аудио кодек: AC3
Видео: 720x304 (2.35:1), 24.00 fps, XviD build 65 ~ 1159 kbps avg, 0.221 bit/pixel
Аудио #1: 48 kHz, AC3 Dolby Digital, 3/2 (L,C,R,l,r) + LFE ch, ~384.00 kbps--
Код:
General
Complete name                            : C:\Documents and Settings\Admin\Рабочий стол\MediaCenter\Фильмы\Nerealnaya.Lubov.2014.O.DVDRip.1400MB.avi
Format                                   : AVI
Format/Info                              : Audio Video Interleave
File size                                : 1.37 GiB
Duration                                 : 2h 1mn
Overall bit rate                         : 1 616 Kbps
Writing application                      : VirtualDubMod 1.5.10.2 (build 2540/release)
Writing library                          : VirtualDubMod build 2540/release
Video
ID                                       : 0
Format                                   : MPEG-4 Visual
Format profile                           : Advanced [email protected]
Format settings, BVOP                    : 2
Format settings, QPel                    : No
Format settings, GMC                     : No warppoints
Format settings, Matrix                  : Custom
Codec ID                                 : XVID
Codec ID/Hint                            : XviD
Duration                                 : 2h 1mn
Bit rate                                 : 1 159 Kbps
Width                                    : 720 pixels
Height                                   : 304 pixels
Display aspect ratio                     : 2.35:1
Frame rate                               : 24.000 fps
Color space                              : YUV
Chroma subsampling                       : 4:2:0
Bit depth                                : 8 bits
Scan type                                : Progressive
Compression mode                         : Lossy
Bits/(Pixel*Frame)                       : 0.221
Stream size                              : 1 005 MiB (72%)
Writing library                          : XviD 1.2.1 (UTC 2008-12-04)
Audio
ID                                       : 1
Format                                   : AC-3
Format/Info                              : Audio Coding 3
Mode extension                           : CM (complete main)
Format settings, Endianness              : Big
Codec ID                                 : 2000
Duration                                 : 2h 1mn
Bit rate mode                            : Constant
Bit rate                                 : 384 Kbps
Channel(s)                               : 6 channels
Channel positions                        : Front: L C R, Side: L R, LFE
Sampling rate                            : 48.0 KHz
Bit depth                                : 16 bits
Compression mode                         : Lossy
Stream size                              : 333 MiB (24%)
Alignment                                : Split accross interleaves
Download / Скачать

Хотите скачать бесплатно? Зарегистрируйтесь на сайте (ссылка на регистрацию). Pirat.ca - самый быстрый торрент трекер в рунете!

Как скачивать  ·   Что такое торрент  ·   Рейтинг и ограничения

Пост 15-Мар-2014 02:58 (спустя 3 часа)

Топик был перенесен из форума Зарубежное Кино (Трюм) в форум Новинки (HD|DVD|BD| TV|SAT|PDTV| - Rips)
Агент 47
 

KoSkud

Флибустьер

Пост 15-Мар-2014 09:53 (спустя 10 часов)

[Q] 

спасибо,заценим нереальность любви в Сочи ))

_________________
Учись-играя,играя-учись
[Профиль]  [ЛС] 

Gari4

Флибустьер

Пост 15-Мар-2014 13:11 (спустя 3 часа)

[Q] 

Звездный состав не спасает фильм от провала. Одноразовый как шлюхи из фильма, не стоящий не то что 300$, но и 300 рублей в кино. Да, есть сюжетная линия; да есть интерес к главным героям, но фильм настолько банальный, что хуже и быть не может.
Глупо все от начала до конца: школьная подруга вдруг проявила заботу чуть не сбив давнюю знакомую на дорогой тачке; такое количество встречных миллионеров, такие глупые махинации, принятия всего на веру, даже успех романа про животных (представляю интимные сцены собаки со свиньей).
Убрать всех звезд (которые мне кажется как-то опускаются до бюджета в 5млн долларов и съемок в одноразовом кино, приуроченном к олимпиаде) смотреть будет не на что вообще.
Но смотреть все же этот фильм стоит, все же есть какая-то в нем искра тепла и доброты, наверное все так же из-за атмосферы, которые создают актеры.
В общем 3 из 5...
[Профиль]  [ЛС] 

Selim

Корсар

Пост 15-Мар-2014 16:12 (спустя 3 часа)

[Q] 

Да простят меня армяне но с недавних пор как настала эра "Андреасянов" не смотрю фильмы режисеров с подобными фамилиями.
[Профиль]  [ЛС] 

казаев

Морской Волк

Пост 16-Мар-2014 12:30 (спустя 20 часов)

[Q] 

507523Да простят меня армяне но с недавних пор как настала эра "Андреасянов" не смотрю фильмы режисеров с подобными фамилиями.
Первая мысль, которая пришла в голову, увидев режиссера.
[Профиль]  [ЛС] 

Selim

Корсар

Пост 17-Мар-2014 19:18 (спустя 1 день 6 часов)

[Q] 

Скачал и посмотрел дабы не быть предвзятым. Ничего не изменилось в этом мире. Лучше бы денег бедным отдали. Отказать
[Профиль]  [ЛС] 

ягжин

Гроза морей

Пост 17-Мар-2014 19:31 (спустя 12 минут)

[Q] 

Качаю только для жены!
[Профиль]  [ЛС] 

kudrjavy

Флибустьер

Пост 18-Мар-2014 01:22 (спустя 5 часов)

[Q] 

Спасибо за труды!!)))))

_________________
Девушки-как печеньки: ломаются,пока не намокнут...
[Профиль]  [ЛС] 

kimrutberg

Морской Волк

Пост 21-Мар-2014 01:37 (спустя 3 дня)

[Q] 

Спасибо Автору респект!!!

_________________
Всем пиратам - семь футов под килем !
[Профиль]  [ЛС] 

Han.M

Флибустьер

Пост 21-Мар-2014 17:49 (спустя 16 часов)

[Q] 

Даже ссылок нет чтоб рейтинг посмотреть, видимо все так ужасно
[Профиль]  [ЛС] 

E8GEN

Корсар

Пост 24-Мар-2014 13:45 (спустя 2 дня 19 часов)

[Q] 

Но смотреть все же этот фильм стоит, все же есть какая-то в нем искра тепла и доброты, наверное все так же из-за атмосферы, которые создают актеры.
согласен)
[Профиль]  [ЛС] 

Димарик82

Корсар

725

Пост 24-Мар-2014 20:48 (спустя 7 часов)

[Q] 

Супер! Спасибо!!! посмотрим
[Профиль]  [ЛС] 

UA4HQW

Флибустьер

2528

Пост 02-Апр-2014 07:56 (спустя 8 дней)

[Q] 

Нормальная мелодрама для домохозяек.
Автору респект!!!
[Профиль]  [ЛС] 

U-858

Флибустьер

Пост 02-Апр-2014 11:01 (спустя 3 часа)

[Q] 

Будем посмотреть. Автору респект!!!
[Профиль]  [ЛС] 

dilov2007

Шкипер

Пост 11-Апр-2014 15:27 (спустя 9 дней)

[Q] 

Фильм очень понравился.
Рекомендую для семейного просмотра Всем качать!!!

_________________
Не суди сам! И не судим будешь.
[Профиль]  [ЛС] 

femaxx

Корсар

Пост 14-Апр-2014 07:31 (спустя 2 дня 16 часов)

[Q] 

Спасибо!!!
[Профиль]  [ЛС] 

Skala973

Корсар

Пост 15-Апр-2014 18:34 (спустя 1 день 11 часов)

[Q] 

Арменвуд рулит.
Фильм можно посмотреть разок, но только в фоновом режиме. Пока там чем нибудь занимаешься, пускай идёт. Даже если на полчаса отлучиться, то ничего не пропустишь.
[Профиль]  [ЛС] 

Пост 19-Апр-2014 16:46 (спустя 3 дня)

Топик был перенесен из форума Новинки (HD|DVD|BD| TV|SAT|PDTV| - Rips) в форум Российские фильмы
erchine
 
Показать сообщения:    
Ответить на тему

Текущее время: Сегодня 18:32

Часовой пояс: GMT + 4



Вы не можете начинать темы
Вы не можете отвечать на сообщения
Вы не можете редактировать свои сообщения
Вы не можете удалять свои сообщения
Вы не можете голосовать в опросах
Вы не можете прикреплять файлы к сообщениям
Вы не можете скачивать файлы

▼ Вниз