ML
     
  Уважаемый Гость!
Вы можете поддержать проект и зарегистрироваться у наших партнеров - онлайн-стратегия MyLands. При регистрации в игре Вы получите код, который сможете активировать после регистрации на pirat.ca и получить 1000 дублонов.

Ваш код:
2a3da67fd641d69eeebb7cb965232435a70eaa24
 
     

Звено (Роман Романовский) [2012 г., Триллер, DVDRip]

Ответить на тему
 
Автор
Сообщение

Пост 21-Мар-2014 20:52

[Q] 

Resident

- Звено--«Прошлое не ушло...» Производство: Россия
Режиссер: Роман Романовский
Жанр: Триллер
Год выпуска: 2012 г.
Продолжительность: 02:02:03
В ролях: Кристина Казинская, Иван Оранский, Алексей Лунёв, Евгений Филичкин, Владимир Смирнов , Владимир Фролов , Валентин Голубенко, Вероника Амирханова, Виктор Полторацкий и др.-Описание: Молодой ученый, пытаясь избежать срочной службы в химических войсках, выбирает альтернативную службу воспитателем в подмосковном детском доме, расположившемся в древней усадьбе. По странному стечению обстоятельств, несколько его предшественников на этой должности, странным образом погибали. Вскоре молодой человек понимает, что он попал в это место не случайно и, если он не вырвется из ловушки, в которую его заманили обстоятельства, то он станет следующим звеном в выстроенной кем-то цепи.-Сэмпл КиноПоиск
Качество видео: DVDRip
Контейнер: AVI
Видео кодек: XviD
Аудио кодек: AC3
Видео: 720x576 (16:9) 25 fps, XviD, 2 298 Kbps avg, 0.222 bit/pixel
Аудио: 44.1 KHz, AC-3 2 channels Front: L R, 224.00 kbps avg
Cубтитры: отсутствуют
Общее
Полное имя : W:\Zveno.avi
Формат : AVI
Формат/Информация : Audio Video Interleave
Профиль формата : OpenDML
Размер файла : 2,16 Гбайт
Продолжительность : 2 ч. 2 м.
Общий поток : 2532 Кбит/сек
Программа кодирования : Lavf52.93.0
Видео
Идентификатор : 0
Формат : xvid
Идентификатор кодека : xvid
Продолжительность : 2 ч. 2 м.
Битрейт : 2298 Кбит/сек
Ширина : 720 пикс.
Высота : 576 пикс.
Соотношение сторон : 5:4
Частота кадров : 25,000 кадр/сек
Стандарт вещания : PAL
Бит/(Пиксели*Кадры) : 0.222
Размер потока : 1,96 Гбайт (91%)
Аудио
Идентификатор : 1
Формат : AC-3
Формат/Информация : Audio Coding 3
Расширение режима : CM (complete main)
Идентификатор кодека : 2000
Продолжительность : 2 ч. 2 м.
Вид битрейта : Постоянный
Битрейт : 224 Кбит/сек
Канал(ы) : 2 канала(ов)
Расположение каналов : Front: L R
Частота : 44,1 КГц
Битовая глубина : 16 бит
Метод сжатия : С потерями
Размер потока : 196 Мбайт (9%)
Выравнивание : Соединение по промежуткам
Продолжительность промежутка : 35 мс. (0,87 видеокадр)
Download / Скачать

Хотите скачать бесплатно? Зарегистрируйтесь на сайте (ссылка на регистрацию). Pirat.ca - самый быстрый торрент трекер в рунете!

Как скачивать  ·   Что такое торрент  ·   Рейтинг и ограничения

Пост 21-Мар-2014 23:48 (спустя 2 часа 55 минут)

Топик был перенесен из форума Наше кино (Трюм) в форум Российские фильмы
erchine
 

igorexa1111

Корсар

Пост 22-Мар-2014 06:54 (спустя 10 часов)

[Q] 

Вселенная скриншотов...
[Профиль]  [ЛС] 
Показать сообщения:    
Ответить на тему

Текущее время: Сегодня 01:13

Часовой пояс: GMT + 4



Вы не можете начинать темы
Вы не можете отвечать на сообщения
Вы не можете редактировать свои сообщения
Вы не можете удалять свои сообщения
Вы не можете голосовать в опросах
Вы не можете прикреплять файлы к сообщениям
Вы не можете скачивать файлы

▼ Вниз