ML
     
  Уважаемый Гость!
Вы можете поддержать проект и зарегистрироваться у наших партнеров - онлайн-стратегия MyLands. При регистрации в игре Вы получите код, который сможете активировать после регистрации на pirat.ca и получить 1000 дублонов.

Ваш код:
bb0cb47ee786a33f751af5a500dd264c9487bfac
 
     

Куплю друга (Александр Итыгилов (мл.)) [2009 г., Мелодрама, комедия, SATRip]

Ответить на тему
 
Автор
Сообщение

Пост 23-Мар-2014 03:52

[Q] 

valeryz777

Гроза морей

-Куплю друга-- Производство: Украинская Медийная Группа
Режиссер: Александр Итыгилов (мл.)
Жанр: Мелодрама, комедия
Год выпуска: 2009 г.
Продолжительность: 01:28:25
В ролях: Богдан Ступка, Алексей Зубков, Ксения Князева, Остап Ступка, Ольга Сумская, Евгений Ганелин, Ирина Мельник, Ольга Матешко, Дмитрий Суржиков, Игорь Крикунов-Описание: Ким Булатович Сычев большую часть своей активной жизни провел в Сибири на золотых приисках не забывая о родных, которые, благодаря ему, безбедно существовали все это время. И вот, спустя годы, Ким возвращается на родину, где у него есть сын, внучка и невестка Лиля - вторая жена сына. Вскоре Ким узнает, что он неизлечимо болен, и о махинациях невестки с завещанием. Чтобы изгнать аферистку из дома, Сычеву нужно ее разоблачить - доказательно и убедительно. Но для этого Киму явно не хватает друга - надежного человека. Подумав над обстоятельствами ситуации, он дает отчаянное объявление: "Куплю друга…".-Сэмпл КиноПоиск
Качество видео: SATRip
Контейнер: AVI
Видео кодек: XviD
Аудио кодек: MP3
Видео: 704х400 pixel, 1547 kbps, 25,000 fps, 0.220 bit/pixel
Аудио: 128 kbps, 2 ch, 48,0 kHz
Cубтитры: отсутствуют
Общее
Полное имя : Kuplju.druga[pirat.ca].SATRip
Формат : AVI
Формат/Информация : Audio Video Interleave
Размер файла : 1,04 Гбайт
Продолжительность : 1 ч. 28 м.
Общий поток : 1685 Кбит/сек
Программа кодирования : VirtualDubMod 1.5.10.3 (build 2550/release)
Библиотека кодирования : VirtualDubMod build 2550/release
Видео
Идентификатор : 0
Формат : MPEG-4 Visual
Профиль формата : Advanced [email protected]
Параметр BVOP формата : 2
Параметр QPel формата : Нет
Параметр GMC формата : Без точки перехода
Параметр матрицы формата : Выборочная
Режим смешивания : Сжатый битовый поток
Идентификатор кодека : XVID
Идентификатор кодека/Подсказка : XviD
Продолжительность : 1 ч. 28 м.
Битрейт : 1547 Кбит/сек
Ширина : 704 пикселя
Высота : 400 пикселей
Соотношение сторон : 16:9
Частота кадров : 25,000 кадров/сек
Цветовое пространство : YUV
Субдискретизация насыщенности : 4:2:0
Битовая глубина : 8 бит
Тип развёртки : Прогрессивная
Метод сжатия : С потерями
Бит/(Пиксели*Кадры) : 0.220
Размер потока : 979 Мбайт (92%)
Библиотека кодирования : XviD 62
Аудио
Идентификатор : 1
Формат : MPEG Audio
Версия формата : Version 1
Профиль формата : Layer 3
Режим : Joint stereo
Расширение режима : MS Stereo
Идентификатор кодека : 55
Идентификатор кодека/Подсказка : MP3
Продолжительность : 1 ч. 28 м.
Вид битрейта : Постоянный
Битрейт : 128 Кбит/сек
Каналы : 2 канала
Частота : 48,0 КГц
Метод сжатия : С потерями
Размер потока : 81,0 Мбайт (8%)
Выравнивание : Разделение по промежуткам
Продолжительность промежутка : 40 мс. (1,00 видеокадр)
Время предзагрузки промежутка : 500 мс.
Download / Скачать

Хотите скачать бесплатно? Зарегистрируйтесь на сайте (ссылка на регистрацию). Pirat.ca - самый быстрый торрент трекер в рунете!

Как скачивать  ·   Что такое торрент  ·   Рейтинг и ограничения

valeryz777 ®

Гроза морей

896

Пост 23-Мар-2014 03:59 (спустя 7 минут)

[Q] 

Хочу поделиться фильмом, который подарит Вам массу положительных эмоций! bj

_________________
«Festina lente» что означает «Поспешай медленно»
[Профиль]  [ЛС] 

Пост 23-Мар-2014 09:33 (спустя 5 часов)

Топик был перенесен из форума Наше кино (Трюм) в форум Российские фильмы
erchine
 

valeryz777 ®

Гроза морей

896

Пост 23-Мар-2014 09:40 (спустя 5 часов)

[Q] 

Спасибо, erchine! ax

_________________
«Festina lente» что означает «Поспешай медленно»
[Профиль]  [ЛС] 

Scorpion7474

Флибустьер

Пост 08-Апр-2014 20:57 (спустя 16 дней)

[Q] 

посмотрим посмотрим Спасибо!!!
[Профиль]  [ЛС] 

peksisan

Штурман

Пост 11-Апр-2014 15:41 (спустя 2 дня 18 часов)

[Q] 

От нечего делать посмотреть можно..
[Профиль]  [ЛС] 

dilov2007

Шкипер

Пост 11-Апр-2014 16:15 (спустя 33 минуты)

[Q] 

А мне понравился...
Автору респект!!!

_________________
Не суди сам! И не судим будешь.
[Профиль]  [ЛС] 

Scorpion7474

Флибустьер

Пост 14-Апр-2014 23:37 (спустя 3 дня)

[Q] 

Автору респект!!! понравился спасибо
[Профиль]  [ЛС] 

valeryz777 ®

Гроза морей

896

Пост 23-Фев-2015 12:52 (спустя 10 месяцев 8 дней)

[Q] 


_________________
«Festina lente» что означает «Поспешай медленно»
[Профиль]  [ЛС] 

valeryz777 ®

Гроза морей

896

Пост 08-Мар-2015 05:10 (спустя 12 дней)

[Q] 


_________________
«Festina lente» что означает «Поспешай медленно»
[Профиль]  [ЛС] 

valeryz777 ®

Гроза морей

896

Пост 23-Фев-2016 06:38 (спустя 11 месяцев 15 дней)

[Q] 

с праздником!

_________________
«Festina lente» что означает «Поспешай медленно»
[Профиль]  [ЛС] 

Daemon_BS

Штурман

Пост 25-Фев-2016 14:15 (спустя 2 дня 7 часов)

[Q] 

Хороший фильм!!! Спасибо!!!
[Профиль]  [ЛС] 

valeryz777 ®

Гроза морей

896

Пост 08-Мар-2016 09:12 (спустя 11 дней)

[Q] 

С праздником, милые пиратки!!!

_________________
«Festina lente» что означает «Поспешай медленно»
[Профиль]  [ЛС] 

Алоизий

Флибустьер

Пост 23-Апр-2016 19:52 (спустя 1 месяц 15 дней)

[Q] 

Спасибо, посмотрю.
[Профиль]  [ЛС] 
Показать сообщения:    
Ответить на тему

Текущее время: Сегодня 02:21

Часовой пояс: GMT + 4



Вы не можете начинать темы
Вы не можете отвечать на сообщения
Вы не можете редактировать свои сообщения
Вы не можете удалять свои сообщения
Вы не можете голосовать в опросах
Вы не можете прикреплять файлы к сообщениям
Вы не можете скачивать файлы

▼ Вниз