ML
     
  Уважаемый Гость!
Вы можете поддержать проект и зарегистрироваться у наших партнеров - онлайн-стратегия MyLands. При регистрации в игре Вы получите код, который сможете активировать после регистрации на pirat.ca и получить 1000 дублонов.

Ваш код:
59354507ba913a0948d1a8f2e30f2e04c4cd7b9b
 
     

Дорога в чат (Руслан Гаврилов) [2014 г., драма, мелодрама, DVDRip]

Ответить на тему
 
Автор
Сообщение

Пост 26-Мар-2014 12:56

[Q] 

ara1205

-Дорога в чат-- Производство: Россия
Год выпуска: 2014 г.
Жанр: драма, мелодрама
Продолжительность: 00:55:09
Российская премьера: 22 марта 2014-Режиссер: Руслан Гаврилов-В ролях: Ирина Видрицкая, Сергей Марков, Михаил Мухин, Евгений Чауш, Руслан Гаврилов-Описание: История повествует о двух параллельных жизнях, в которых главная героиня вынуждена, по тем или иным причинам вести двойную жизнь. Днём, она тихая и незаметная, а ночью становится участницей эротического видеочата.- -Качество видео: DVDRip
Контейнер: AVI
Видео кодек: XviD
Аудио кодек: MP3
Видео: 720x304, 23,976 fps, 1539 kbps avg, 0.293 bit/pixel
Аудио: 48 kHz, 2 ch, ~320 kbps
Cубтитры: отсутствуют-
Общее
Полное имя : C:\Users\Ромик\Pictures\Дорога в чат\Doroga.v.chat.O.DVDRip.avi
Формат : AVI
Формат/Информация : Audio Video Interleave
Размер файла : 738 Мбайт
Продолжительность : 55 м.
Режим общего битрейта : Переменный
Общий поток : 1871 Кбит/сек
Программа кодирования : VirtualDubMod 1.5.10.3 | www.virtualdub-fr.org || (build 2550/release)
Библиотека кодирования : VirtualDubMod build 2550/release
Видео
Идентификатор : 0
Формат : MPEG-4 Visual
Профиль формата : Advanced [email protected]
Параметр BVOP формата : 1
Параметр QPel формата : Нет
Параметр GMC формата : Без точки перехода
Параметр матрицы формата : Выборочная
Идентификатор кодека : XVID
Идентификатор кодека/Подсказка : XviD
Продолжительность : 55 м.
Битрейт : 1539 Кбит/сек
Ширина : 720 пикселей
Высота : 304 пикселя
Соотношение сторон : 2,35:1
Частота кадров : 23,976 кадра/сек
Цветовое пространство : YUV
Субдискретизация насыщенности : 4:2:0
Битовая глубина : 8 бит
Тип развёртки : Прогрессивная
Метод сжатия : С потерями
Бит/(Пиксели*Кадры) : 0.293
Размер потока : 607 Мбайт (82%)
Библиотека кодирования : XviD 73
Аудио
Идентификатор : 1
Формат : MPEG Audio
Версия формата : Version 1
Профиль формата : Layer 3
Режим : Joint stereo
Расширение режима : MS Stereo
Идентификатор кодека : 55
Идентификатор кодека/Подсказка : MP3
Продолжительность : 55 м.
Вид битрейта : Переменный
Битрейт : 320 Кбит/сек
Каналы : 2 канала
Частота : 44,1 КГц
Метод сжатия : С потерями
Размер потока : 126 Мбайт (17%)
Выравнивание : Соединение по промежуткам
Продолжительность промежутка : 26 мс. (0,63 видеокадр)
Время предзагрузки промежутка : 498 мс.
Библиотека кодирования : LAME3.97
-
-
Download / Скачать

Хотите скачать бесплатно? Зарегистрируйтесь на сайте (ссылка на регистрацию). Pirat.ca - самый быстрый торрент трекер в рунете!

Как скачивать  ·   Что такое торрент  ·   Рейтинг и ограничения

Skala973

Корсар

Пост 26-Мар-2014 15:21 (спустя 2 часа 24 минуты)

[Q] 

Кто нибудь отпишитесь как фильм то? А то даже не знаю стОит ли качать? Что-то у меня крайнее время не стоИт на такие фильмы.
[Профиль]  [ЛС] 

kocmoc35

Морской Волк

Пост 26-Мар-2014 20:41 (спустя 5 часов)

[Q] 

по скринам видно что стоит))))
[Профиль]  [ЛС] 

KoSkud

Флибустьер

Пост 27-Мар-2014 13:38 (спустя 16 часов)

[Q] 

у девушки проблема с грудью,судя по второму скрину ))

_________________
Учись-играя,играя-учись
[Профиль]  [ЛС] 

Datchanin

Корсар

36

Пост 28-Мар-2014 14:31 (спустя 1 день)

[Q] 

513491у девушки проблема с грудью,судя по второму скрину ))
Не, у неё проблема без груди. С грудью обычно проблем нет.

_________________
[Профиль]  [ЛС] 

polozm

Легенда

Пост 28-Мар-2014 17:50 (спустя 3 часа)

[Q] 

513996
513491у девушки проблема с грудью,судя по второму скрину ))
Не, у неё проблема без груди. С грудью обычно проблем нет.
:)))

_________________
mac mini -2.0 GHz Intel Core i7/ 8 GB DDR3. /Intel HD 3000(512mb)OS X 10.9 Mavericks
[Профиль]  [ЛС] 

xedfr

Лоцман

Пост 28-Мар-2014 18:35 (спустя 44 минуты)

[Q] 

Кинопоиск
В общей сложности для кадров видеочата было отснято более двух часов видеоматериала.
Блин а где скачать этот двухчасовой материал??Хотя тема сисек увы не присутсвует в нем
[Профиль]  [ЛС] 

kmv01

Гроза морей

Пост 01-Апр-2014 10:19 (спустя 3 дня)

[Q] 

Нормальный фильм, посмотреть можно.
[Профиль]  [ЛС] 
Показать сообщения:    
Ответить на тему

Текущее время: Сегодня 16:12

Часовой пояс: GMT + 4



Вы не можете начинать темы
Вы не можете отвечать на сообщения
Вы не можете редактировать свои сообщения
Вы не можете удалять свои сообщения
Вы не можете голосовать в опросах
Вы не можете прикреплять файлы к сообщениям
Вы не можете скачивать файлы

▼ Вниз