ML
     
  Уважаемый Гость!
Вы можете поддержать проект и зарегистрироваться у наших партнеров - онлайн-стратегия MyLands. При регистрации в игре Вы получите код, который сможете активировать после регистрации на pirat.ca и получить 1000 дублонов.

Ваш код:
2fd4e750dd89cae3a36ea360f2b345ccfeb562d3
 
     

12 (Никита Михалков) [2007 г., триллер, драма, криминал, детектив, военный, DVDRip] [internal release]

Ответить на тему
 
Автор
Сообщение

Пост 09-Янв-2012 22:27

[Q] 

UrbanVampire

Корсар

12
Год выпуска: 2007
Жанр: триллер, драма, криминал, детектив, военный
Продолжительность: 02:33
Режиссер: Никита Михалков
В ролях: Сергей Маковецкий, Никита Михалков, Сергей Гармаш, Валентин Гафт, Алексей Петренко, Юрий Стоянов, Сергей Газаров, Михаил Ефремов, Алексей Горбунов, Сергей Арцибашев и др.
Описание: История о 12-ти присяжных, обсуждающих, виновен ли 18-летний юноша, обвиняемый в убийстве своего отчима — офицера Российской армии, воевавшего в Чечне.
Все улики свидетельствуют против обвиняемого, и одиннадцать из двенадцати человек, собравшихся в школьном спортзале, готовы осудить юношу. Но один из присяжных уверен, что все не так однозначно, как кажется на первый взгляд, и предлагает коллегам более вдумчиво рассмотреть дело.
Источник/Качество: DVD Rip
Формат: AVI
Видео кодек: XviD
Аудио кодек: AC3
Видео: Xvid 704x288 25.00fps 840kbps 0.166bpf
Аудио: Dolby AC3 48000Hz 6ch 384kbps
General
Complete name : G:\_Films\12 (Михалков)\12_rus_xvid_ac3__DVDrip_by_UrbanVampire.avi
Format : AVI
Format/Info : Audio Video Interleave
File size : 1.32 GiB
Duration : 2h 33mn
Overall bit rate : 1 234 Kbps
Movie name : 12
Director : Никита Михалков
Writing application : VirtualDubMod 1.5.10.1 (build 2439/release)
Copyright : DVDrip by Urban Vampire
Video
ID : 0
Format : MPEG-4 Visual
Format profile : Advanced [email protected]
Format settings, BVOP : 2
Format settings, QPel : No
Format settings, GMC : No warppoints
Format settings, Matrix : Default (H.263)
Muxing mode : Packed bitstream
Codec ID : XVID
Codec ID/Hint : XviD
Duration : 2h 33mn
Bit rate : 841 Kbps
Width : 704 pixels
Height : 288 pixels
Display aspect ratio : 2.40:1
Frame rate : 25.000 fps
Color space : YUV
Chroma subsampling : 4:2:0
Bit depth : 8 bits
Scan type : Progressive
Compression mode : Lossy
Bits/(Pixel*Frame) : 0.166
Stream size : 922 MiB (68%)
Writing library : XviD 1.0.3 (UTC 2004-12-20)
Audio
ID : 1
Format : AC-3
Format/Info : Audio Coding 3
Mode extension : CM (complete main)
Codec ID : 2000
Duration : 2h 33mn
Bit rate mode : Constant
Bit rate : 384 Kbps
Channel(s) : 6 channels
Channel positions : Front: L C R, Side: L R, LFE
Sampling rate : 48.0 KHz
Bit depth : 16 bits
Compression mode : Lossy
Stream size : 421 MiB (31%)
Alignment : Split accross interleaves
Interleave, duration : 40 ms (1.00 video frame)
Interleave, preload duration : 500 ms
Language : Russian
Download / Скачать

Хотите скачать бесплатно? Зарегистрируйтесь на сайте (ссылка на регистрацию). Pirat.ca - самый быстрый торрент трекер в рунете!

Как скачивать  ·   Что такое торрент  ·   Рейтинг и ограничения



Последний раз редактировалось: UrbanVampire (2012-01-09 23:20), всего редактировалось 2 раз(а)

Пост 09-Янв-2012 22:35 (спустя 8 минут)

Топик был перенесен из форума Наше Кино в форум Российские фильмы

goxakrauter
 

Alexe10

Гроза морей

36

Пост 15-Янв-2012 07:41 (спустя 5 дней)

[Q] 

Собравши ярчайшую плеяду актёров, Никита Сергеевич, как всегда в своём репертуаре!
[Профиль]  [ЛС] 

VaNo192

Корсар

Пост 23-Янв-2012 07:02 (спустя 7 дней)

[Q] 

Фильм неплохой, вот только опять ремейк...
[Профиль]  [ЛС] 

ksg111ban

Гроза морей

Пост 04-Мар-2012 23:21 (спустя 1 месяц 12 дней)

[Q] 

Фильм никого не оставит равнодушным.

_________________
[Профиль]  [ЛС] 
Показать сообщения:    
Ответить на тему

Текущее время: Сегодня 14:09

Часовой пояс: GMT + 4



Вы не можете начинать темы
Вы не можете отвечать на сообщения
Вы не можете редактировать свои сообщения
Вы не можете удалять свои сообщения
Вы не можете голосовать в опросах
Вы не можете прикреплять файлы к сообщениям
Вы не можете скачивать файлы

▼ Вниз