ML
     
  Уважаемый Гость!
Вы можете поддержать проект и зарегистрироваться у наших партнеров - онлайн-стратегия MyLands. При регистрации в игре Вы получите код, который сможете активировать после регистрации на pirat.ca и получить 1000 дублонов.

Ваш код:
dbd0d701284cde74a1f34d06ce20b7bc75a73e75
 
     

Первый после Бога (Василий Чигинский) [2005 г., военный, DVDRip]

Ответить на тему
 
Автор
Сообщение

Пост 28-Мар-2014 13:50

[Q] 

Мархуз

-Первый после Бога-- Производство: Россия, Фортуна-фильм XXI
Режиссер: Василий Чигинский
Жанр: военный
Год выпуска: 2005 г.
Продолжительность: 01:39:52
В ролях: Дмитрий Орлов, Владимир Гостюхин, Елизавета Боярская, Нина Русланова, Михаил Гомиашвили, Ирина Бьерклунд, Юрий Степанов, Виктор Сухоруков, Сергей Горобченко, Сергей Рубеко, Виталий Абдулов-Описание: Так на боевых кораблях называют командира. Только в судьбе боевого русского офицера, капитана подводной лодки времён 2-ой Мировой, могли переплестись события этого фильма…-Качество видео: DVDRip
Контейнер: AVI
Видео кодек: XviD
Аудио кодек: MP3
Видео: 704x368; 906 kbps; 25 fps; 0.140 bit/pixel
Аудио: 128 kbps; 2 ch; 48 kHz
Cубтитры: отсутствуют
Фильм дважды номинировался на премию MTV Russia Movie Awards-2006:
1. Прорыв года (Елизавета Боярская)
2. Самая зрелищная сцена (морской бой, торпедирование немецкого конвоя)
Общее
Полное имя : E:\Torrent\Pervij_posle_Boga_[Pirat.ca].torrent.avi
Формат : AVI
Формат/Информация : Audio Video Interleave
Размер файла : 747 Мбайт
Продолжительность : 1 ч. 39 м.
Режим общего битрейта : Переменный
Общий поток : 1046 Кбит/сек
Программа кодирования : VirtualDubMod 1.5.10.2 (build 2540/release)
Библиотека кодирования : VirtualDubMod build 2540/release
Видео
Идентификатор : 0
Формат : MPEG-4 Visual
Профиль формата : Advanced [email protected]
Параметр BVOP формата : 1
Параметр QPel формата : Нет
Параметр GMC формата : Без точки перехода
Параметр матрицы формата : Выборочная
Идентификатор кодека : XVID
Идентификатор кодека/Подсказка : XviD
Продолжительность : 1 ч. 39 м.
Битрейт : 906 Кбит/сек
Ширина : 704 пикселя
Высота : 368 пикселей
Соотношение сторон : 1,913
Частота кадров : 25,000 кадров/сек
Цветовое пространство : YUV
Субдискретизация насыщенности : 4:2:0
Битовая глубина : 8 бит
Тип развёртки : Прогрессивная
Метод сжатия : С потерями
Бит/(Пиксели*Кадры) : 0.140
Размер потока : 647 Мбайт (87%)
Библиотека кодирования : XviD 1.2.1 (UTC 2008-12-04)
Аудио
Идентификатор : 1
Формат : MPEG Audio
Версия формата : Version 1
Профиль формата : Layer 3
Режим : Joint stereo
Расширение режима : MS Stereo
Идентификатор кодека : 55
Идентификатор кодека/Подсказка : MP3
Продолжительность : 1 ч. 39 м.
Вид битрейта : Переменный
Битрейт : 128 Кбит/сек
Каналы : 2 канала
Частота : 48,0 КГц
Метод сжатия : С потерями
Задержка видео : 1 с. 320 мс.
Размер потока : 91,1 Мбайт (12%)
Выравнивание : Разделение по промежуткам
Продолжительность промежутка : 24 мс. (0,60 видеокадр)
Время предзагрузки промежутка : 1518 мс.
Библиотека кодирования : LAME3.90.
Настройки программы : -m j -V 4 -q 2 -lowpass 17.6 --abr 128
Раздача с 15.00 до 3.30 (время московское)
Download / Скачать

Хотите скачать бесплатно? Зарегистрируйтесь на сайте (ссылка на регистрацию). Pirat.ca - самый быстрый торрент трекер в рунете!

Как скачивать  ·   Что такое торрент  ·   Рейтинг и ограничения

Пост 28-Мар-2014 14:23 (спустя 33 минуты)

Топик был перенесен из форума Наше кино (Трюм) в форум Российские фильмы
erchine
 

Scorpion7474

Флибустьер

Пост 07-Апр-2014 13:35 (спустя 9 дней)

[Q] 

как фильм кто смотрел
Добавлено спустя 55 секунд:
ну ладно качнем посмотрим
[Профиль]  [ЛС] 
Показать сообщения:    
Ответить на тему

Текущее время: Сегодня 18:35

Часовой пояс: GMT + 4



Вы не можете начинать темы
Вы не можете отвечать на сообщения
Вы не можете редактировать свои сообщения
Вы не можете удалять свои сообщения
Вы не можете голосовать в опросах
Вы не можете прикреплять файлы к сообщениям
Вы не можете скачивать файлы

▼ Вниз