ML
     
  Уважаемый Гость!
Вы можете поддержать проект и зарегистрироваться у наших партнеров - онлайн-стратегия MyLands. При регистрации в игре Вы получите код, который сможете активировать после регистрации на pirat.ca и получить 1000 дублонов.

Ваш код:
4399ab8611ee7f8a22949d2ee7634160dd2db7e0
 
     

Адмиралъ (Андрей Кравчук) [2008 г., историческая драма, DVDRip] [internal release]

Ответить на тему
 
Автор
Сообщение

Пост 10-Янв-2012 00:21

[Q] 

UrbanVampire

Корсар

Адмиралъ
Год выпуска: 2008
Жанр: историческая драма
Продолжительность: 01:58
Режиссер: Андрей Кравчук
В ролях: Константин Хабенский, Елизавета Боярская, Сергей Безруков, Анна Ковальчук, Владислав Ветров, Егор Бероев, Ришар Боринже, Николай Бурляев, Виктор Вержбицкий, Фёдор Бондарчук и др.
Описание: Фильм, рассказывающий о жизни и любви выдающегося боевого офицера военно-морского флота, полярного исследователя затем ставшего адмиралом, верховного правителя России Александра Васильевича Колчака и Анны Тимиревой. События разворачиваются в период с 1916 по 1920 год на фоне крушения Российской империи, двух революций и Гражданской войны.
Доп. информация: Киноверсия. Также существует сериал, который на некоторых ресурсах ошибочно называется "режиссерской версией".
Источник/Качество: DVDRip
Формат: AVI
Видео кодек: XviD
Аудио кодек: AC3
Видео: Xvid 720x288 25.00fps 1196kbps 0.231bpf
Аудио: Dolby AC3 48000Hz 6ch 448kbps
General
Complete name : G:\_Films\Адмиралъ\Адмиралъ_XviD_AC3__DVDrip_by_UrbanVampire.avi
Format : AVI
Format/Info : Audio Video Interleave
File size : 1.37 GiB
Duration : 1h 58mn
Overall bit rate : 1 654 Kbps
Movie name : Адмиралъ
Writing application : VirtualDubMod 1.5.10.2 (build 2540/release)
Original source form/Name : Movie
Copyright : DVDrip by UrbanVampire
Video
ID : 0
Format : MPEG-4 Visual
Format profile : Advanced [email protected]
Format settings, BVOP : 2
Format settings, QPel : No
Format settings, GMC : No warppoints
Format settings, Matrix : Default (H.263)
Muxing mode : Packed bitstream
Codec ID : XVID
Codec ID/Hint : XviD
Duration : 1h 58mn
Bit rate : 1 197 Kbps
Width : 720 pixels
Height : 288 pixels
Display aspect ratio : 2.500
Frame rate : 25.000 fps
Color space : YUV
Chroma subsampling : 4:2:0
Bit depth : 8 bits
Scan type : Progressive
Compression mode : Lossy
Bits/(Pixel*Frame) : 0.231
Stream size : 1 016 MiB (72%)
Writing library : XviD 1.2.1 (UTC 2008-12-04)
Audio
ID : 1
Format : AC-3
Format/Info : Audio Coding 3
Mode extension : CM (complete main)
Codec ID : 2000
Duration : 1h 58mn
Bit rate mode : Constant
Bit rate : 448 Kbps
Channel(s) : 6 channels
Channel positions : Front: L C R, Side: L R, LFE
Sampling rate : 48.0 KHz
Bit depth : 16 bits
Compression mode : Lossy
Stream size : 380 MiB (27%)
Alignment : Split accross interleaves
Interleave, duration : 40 ms (1.00 video frame)
Interleave, preload duration : 500 ms
Language : Russian
Download / Скачать

Хотите скачать бесплатно? Зарегистрируйтесь на сайте (ссылка на регистрацию). Pirat.ca - самый быстрый торрент трекер в рунете!

Как скачивать  ·   Что такое торрент  ·   Рейтинг и ограничения

Пост 10-Янв-2012 16:19 (спустя 15 часов)

Топик был перенесен из форума Наше Кино в форум Российские фильмы

goxakrauter
 

Alexe10

Гроза морей

36

Пост 15-Янв-2012 07:45 (спустя 5 дней)

[Q] 

Игра господина Хабенского, как всегда выше всяческих похвал!
[Профиль]  [ЛС] 

ara1205

69729

Пост 03-Авг-2012 11:28 (спустя 6 месяцев 19 дней)

[Q] 

[Профиль]  [ЛС] 

goxakrauter

4538

Пост 03-Авг-2012 12:21 (спустя 52 минуты)

[Q] 

Поддержу, спасибо!
[Профиль]  [ЛС] 

antis1962

Корсар

Пост 23-Авг-2012 23:53 (спустя 20 дней)

[Q] 

Получил большое удовольствие от просмотра....Спасибо...
[Профиль]  [ЛС] 
Показать сообщения:    
Ответить на тему

Текущее время: Сегодня 10:45

Часовой пояс: GMT + 4



Вы не можете начинать темы
Вы не можете отвечать на сообщения
Вы не можете редактировать свои сообщения
Вы не можете удалять свои сообщения
Вы не можете голосовать в опросах
Вы не можете прикреплять файлы к сообщениям
Вы не можете скачивать файлы

▼ Вниз