ML
     
  Уважаемый Гость!
Вы можете поддержать проект и зарегистрироваться у наших партнеров - онлайн-стратегия MyLands. При регистрации в игре Вы получите код, который сможете активировать после регистрации на pirat.ca и получить 1000 дублонов.

Ваш код:
69f316be79867e9bf99caee9682d20bb11964507
 
     

Нас не догонишь (Илья Шиловский) [2007 г., романтический триллер, DVDRip] [internal release]

Ответить на тему
 
Автор
Сообщение

Пост 10-Янв-2012 00:37

[Q] 

UrbanVampire

Корсар

Нас не догонишь
Год выпуска: 2007
Жанр: романтический триллер
Продолжительность: 01:29
Режиссер: Илья Шиловский
В ролях: Михаил Филиппов, Светлана Светикова, Алексей Нестеренко, Наталья Егорова, Дмитрий Шевченко, Екатерина Вилкова, Константин Лавроненко, Регина Мянник, Владимир Стержаков, Василий Фролов и др.
Описание: Еще вчера отец и сын — эмигранты из Америки, охранник женской колонии и с ним две беглые заключенные, студентка театрального института, миллионерша, сотрудник ФСБ, и не подозревали о существовании друг друга, а жизнь казалась им расписанной на долгие годы, но как только злой Рок запустил свой невольничий механизм, связав их в один тугой узел, в одночасье ни у кого из них не оказалось завтра…
Источник/Качество: DVDRip
Формат: AVI
Видео кодек: XviD
Аудио кодек: AC3
Видео: Xvid 640x352 25.00fps 708kbps 0.126bpf
Аудио: Dolby AC3 48000Hz 6ch 384kbps
General
Complete name : G:\_Films\Нас не догонишь\Нас не догонишь_XviD_AC3__DVDrip_by_UrbanVampire.avi
Format : AVI
Format/Info : Audio Video Interleave
File size : 703 MiB
Duration : 1h 29mn
Overall bit rate : 1 103 Kbps
Movie name : Нас не догонишь
Writing application : VirtualDubMod 1.5.10.1 (build 2439/release)
Copyright : DVDrip by Urban Vampire
Video
ID : 0
Format : MPEG-4 Visual
Format profile : Advanced [email protected]
Format settings, BVOP : 2
Format settings, QPel : No
Format settings, GMC : No warppoints
Format settings, Matrix : Default (H.263)
Muxing mode : Packed bitstream
Codec ID : XVID
Codec ID/Hint : XviD
Duration : 1h 29mn
Bit rate : 709 Kbps
Width : 640 pixels
Height : 352 pixels
Display aspect ratio : 16:9
Frame rate : 25.000 fps
Color space : YUV
Chroma subsampling : 4:2:0
Bit depth : 8 bits
Scan type : Progressive
Compression mode : Lossy
Bits/(Pixel*Frame) : 0.126
Stream size : 452 MiB (64%)
Writing library : XviD 1.0.3 (UTC 2004-12-20)
Audio
ID : 1
Format : AC-3
Format/Info : Audio Coding 3
Mode extension : CM (complete main)
Codec ID : 2000
Duration : 1h 29mn
Bit rate mode : Constant
Bit rate : 384 Kbps
Channel(s) : 6 channels
Channel positions : Front: L C R, Side: L R, LFE
Sampling rate : 48.0 KHz
Bit depth : 16 bits
Compression mode : Lossy
Stream size : 245 MiB (35%)
Alignment : Split accross interleaves
Interleave, duration : 40 ms (1.00 video frame)
Interleave, preload duration : 500 ms
Download / Скачать

Хотите скачать бесплатно? Зарегистрируйтесь на сайте (ссылка на регистрацию). Pirat.ca - самый быстрый торрент трекер в рунете!

Как скачивать  ·   Что такое торрент  ·   Рейтинг и ограничения

Пост 10-Янв-2012 16:19 (спустя 15 часов)

Топик был перенесен из форума Наше Кино в форум Российские фильмы

goxakrauter
 
Показать сообщения:    
Ответить на тему

Текущее время: Сегодня 14:28

Часовой пояс: GMT + 4



Вы не можете начинать темы
Вы не можете отвечать на сообщения
Вы не можете редактировать свои сообщения
Вы не можете удалять свои сообщения
Вы не можете голосовать в опросах
Вы не можете прикреплять файлы к сообщениям
Вы не можете скачивать файлы

▼ Вниз