ML
     
  Уважаемый Гость!
Вы можете поддержать проект и зарегистрироваться у наших партнеров - онлайн-стратегия MyLands. При регистрации в игре Вы получите код, который сможете активировать после регистрации на pirat.ca и получить 1000 дублонов.

Ваш код:
ef8b3e8cd07bec918273586d22e5aaf18e0ae925
 
     

Звезда (Николай Лебедев) [2002 г., военный, DVDRip]

Ответить на тему
 
Автор
Сообщение

Пост 29-Мар-2014 18:16

[Q] 

Мархуз

-Звезда-- Производство: Россия, Мосфильм, АРК-фильм
Режиссер: Николай Лебедев
Жанр: военный
Год выпуска: 2002 г.
Продолжительность: 01:37:13
В ролях: Игорь Петренко, Артем Семакин, Алексей Панин, Алексей Кравченко, Анатолий Гущин, Амаду Мамадаков, Юрий Лагута, Екатерина Вуличенко, Андрей Егоров, Сергей Миллер-Описание: Лето 1944 года, Красная Армия ведет бои на подступах к западной границе СССР. В тыл врага отправляется группа разведчиков, молодых ребят. Их позывные — «Звезда». Они должны выполнить задание, от которого зависит судьба фронта. И они выполняют его, но цена этого задания оказывается слишком дорогой. Полный напряжения и драматизма, фильм заставляет вспомнить, кто победил в этой войне.-Качество видео: DVDRip
Контейнер: AVI
Видео кодек: XviD
Аудио кодек: AC3
Видео: 720x432; 1743 kbps; 23.976 fps; 0.234 bit/pixel
Аудио: 384 kbps; 6 ch; 48 kHz
Cубтитры: отсутствуют
Золотая премия (GOLD REMI) на международном фестивале WorldFest-Houston Film Festival. Участник официальной программы Международного кинофестиваля в г. Карловы Вары (Чехия). Гран-при «Золотой факел» на Международном кинофестивале в г. Пхеньян. Гран-при фестиваля русского кино во Франции (г. Онфлер). Гран-при Шведского фестиваля российского кино КиноРюрик. Гран-при фестиваля русского кино в г. Ницца (Франция).
Гран-при, приз за лучшую режиссуру, лучшее исполнение главных ролей на Международном детском фестивале в Артеке. Гран-при на Международном детском фестивале «Орленок».
Государственная премия РФ за 2002 год.
Большой приз жюри и Приз зрительских симпатий на фестивале «Литература и кино» в Гатчине. Приз зрительских симпатий «Выборгский счет» (первое место) на фестивале «Окно в Европу».
Приз за лучшую музыку («Кинотавр-2002»).
Приз «Золотой Овен» за лучшую музыку к кинофильму.
Призы Национальной академии кинематографических искусств и наук «Золотой Орел» за лучшую музыку и лучшую операторскую работу. Номинации «Золотой Орел» — лучший фильм года, лучшая режиссура, лучшая работа художника-постановщика, лучшая работа звукорежиссёра
Призы «Ника» за лучшую музыку, лучшую работу звукорежиссёра, за лучший дебют (актер И.Петренко). Номинации «Ника» — лучший фильм года, лучшая актерская работа второго плана, лучшая операторская работа
Национальная премия «Блокбастер» — за лучший фильм в категории видеопродаж, за лучший фильм в категории видеопроката
Общее
Полное имя : E:\Torrent\Zvezda_[Pirat.ca].torrent.avi
Формат : AVI
Формат/Информация : Audio Video Interleave
Размер файла : 1,45 Гбайт
Продолжительность : 1 ч. 37 м.
Общий поток : 2136 Кбит/сек
Название фильма : Zvezda.2002.RUS.BDRip.XviD.AC3.-HQCLUB
Режиссёр : kingsize87
Программа кодирования : VirtualDubMod 1.5.10.2 (build 2542/release)
Правообладатель : http://hqclub.net/
Примечание : 01.06.2010
Видео
Идентификатор : 0
Формат : MPEG-4 Visual
Профиль формата : Advanced [email protected]
Параметр BVOP формата : 1
Параметр QPel формата : Нет
Параметр GMC формата : Без точки перехода
Параметр матрицы формата : Выборочная
Идентификатор кодека : XVID
Идентификатор кодека/Подсказка : XviD
Продолжительность : 1 ч. 37 м.
Битрейт : 1743 Кбит/сек
Ширина : 720 пикселей
Высота : 432 пикселя
Соотношение сторон : 1,667
Частота кадров : 23,976 кадра/сек
Цветовое пространство : YUV
Субдискретизация насыщенности : 4:2:0
Битовая глубина : 8 бит
Тип развёртки : Прогрессивная
Метод сжатия : С потерями
Бит/(Пиксели*Кадры) : 0.234
Размер потока : 1,18 Гбайт (82%)
Библиотека кодирования : XviD 1.2.1 (UTC 2008-12-04)
Аудио
Идентификатор : 1
Формат : AC-3
Формат/Информация : Audio Coding 3
Расширение режима : CM (complete main)
Параметр Endianness формата : Big
Идентификатор кодека : 2000
Продолжительность : 1 ч. 37 м.
Вид битрейта : Постоянный
Битрейт : 384 Кбит/сек
Каналы : 6 каналов
Расположение каналов : Front: L C R, Side: L R, LFE
Частота : 48,0 КГц
Битовая глубина : 16 бит
Метод сжатия : С потерями
Размер потока : 267 Мбайт (18%)
Выравнивание : Разделение по промежуткам
Продолжительность промежутка : 42 мс. (1,00 видеокадр)
Время предзагрузки промежутка : 500 мс.
Раздача с 15.00 до 3.30 (время московское)
Download / Скачать

Хотите скачать бесплатно? Зарегистрируйтесь на сайте (ссылка на регистрацию). Pirat.ca - самый быстрый торрент трекер в рунете!

Как скачивать  ·   Что такое торрент  ·   Рейтинг и ограничения

Показать сообщения:    
Ответить на тему

Текущее время: Сегодня 18:39

Часовой пояс: GMT + 4



Вы не можете начинать темы
Вы не можете отвечать на сообщения
Вы не можете редактировать свои сообщения
Вы не можете удалять свои сообщения
Вы не можете голосовать в опросах
Вы не можете прикреплять файлы к сообщениям
Вы не можете скачивать файлы

▼ Вниз