ML
     
  Уважаемый Гость!
Вы можете поддержать проект и зарегистрироваться у наших партнеров - онлайн-стратегия MyLands. При регистрации в игре Вы получите код, который сможете активировать после регистрации на pirat.ca и получить 1000 дублонов.

Ваш код:
dbd0d701284cde74a1f34d06ce20b7bc75a73e75
 
     

Кружева (Иван Мережко) [2014 г., мелодрама, SATRip]

Ответить на тему
 
Автор
Сообщение

Пост 29-Мар-2014 20:15

[Q] 

ara1205

-Кружева-- Производство: Россия
Год выпуска: 2014 г.
Жанр: мелодрама
Продолжительность: 01:38:43-Режиссер: Иван Мережко-В ролях: Вера Баханкова, Иван Жидков, Валерия Арланова, Андрей Карако, Инна Коляда, Алеся Пуховая, Елена Дубровская, Анатолий Голуб, Эрик Дик, Наталья Онищенко, Николай Колосов, Светлана Никифорова, Ольга Абрикосова-Описание: Вера работает швеей на заштатной фабрике города Егорьевска, но мечтает о карьере модного модельера. У неё есть талант и коллекция авторских эскизов, которые никому не интересны в родном Егорьевске. Выход один – ехать в столицу! Уверенная в своей исключительности, Вера заявляется в популярный московский Дом моды Ирины Штайф. Но там девушке из периферии готовы предложить только должность уборщицы. Вера разочарована и всё же соглашается даже на это. Позже поломойка выведет на чистую воду владелицу Дома моды, найдёт верную подругу и всё-таки покорит Москву. Но самое главное – Вера встретит в Москве настоящую любовь...- -Качество видео: SATRip
Контейнер: AVI
Видео кодек: DivX
Аудио кодек: MP3
Видео: 720x400, 25 fps, 1851 kbps avg, 0.257 bit/pixel
Аудио: 48 kHz, MPEG Layer 3, 2 ch, ~128.00 kbps
Cубтитры: отсутствуют-
Общее
Полное имя : C:\Users\Ромик\Pictures\Кружева\Kruzheva.2014.DivX.SATRip.avi
Формат : AVI
Формат/Информация : Audio Video Interleave
Размер файла : 1,36 Гбайт
Продолжительность : 1 ч. 38 м.
Общий поток : 1989 Кбит/сек
Библиотека кодирования : Boilsoft AVI tool build 1/release
Видео
Идентификатор : 0
Формат : MPEG-4 Visual
Параметр BVOP формата : 1
Параметр QPel формата : Нет
Параметр GMC формата : Без точки перехода
Параметр матрицы формата : Default (H.263)
Режим смешивания : Сжатый битовый поток
Идентификатор кодека : DX50
Идентификатор кодека/Подсказка : DivX 5
Продолжительность : 1 ч. 38 м.
Битрейт : 1851 Кбит/сек
Ширина : 720 пикселей
Высота : 400 пикселей
Соотношение сторон : 16:9
Частота кадров : 25,000 кадров/сек
Цветовое пространство : YUV
Субдискретизация насыщенности : 4:2:0
Битовая глубина : 8 бит
Тип развёртки : Прогрессивная
Метод сжатия : С потерями
Бит/(Пиксели*Кадры) : 0.257
Размер потока : 1,27 Гбайт (93%)
Библиотека кодирования : DivX 6.8.5 (UTC 2009-08-20)
Аудио
Идентификатор : 1
Формат : MPEG Audio
Версия формата : Version 1
Профиль формата : Layer 3
Режим : Joint stereo
Расширение режима : MS Stereo
Идентификатор кодека : 55
Идентификатор кодека/Подсказка : MP3
Продолжительность : 1 ч. 38 м.
Вид битрейта : Постоянный
Битрейт : 128 Кбит/сек
Каналы : 2 канала
Частота : 48,0 КГц
Метод сжатия : С потерями
Размер потока : 89,8 Мбайт (6%)
Выравнивание : Разделение по промежуткам
Продолжительность промежутка : 40 мс. (1,00 видеокадр)
Время предзагрузки промежутка : 500 мс.
-
-
Download / Скачать

Хотите скачать бесплатно? Зарегистрируйтесь на сайте (ссылка на регистрацию). Pirat.ca - самый быстрый торрент трекер в рунете!

Как скачивать  ·   Что такое торрент  ·   Рейтинг и ограничения

kinstintin

Гроза морей

Пост 29-Мар-2014 20:22 (спустя 6 минут)

[Q] 

Спасибо!!!
посмотрю на досуге
[Профиль]  [ЛС] 

evilsan39

Корсар

1231

Пост 30-Мар-2014 00:31 (спустя 4 часа)

[Q] 

Спасибо!!! Качну для жены

_________________

[Профиль]  [ЛС] 

surzis

Корсар

Пост 13-Апр-2014 17:01 (спустя 14 дней)

[Q] 

Говнище. Прочитав описание - можно не смотреть фильм.

_________________
http://surzis.ru/ - заходи ко мне в блог! Советую только хорошие фильмы и игры!
[Профиль]  [ЛС] 
Показать сообщения:    
Ответить на тему

Текущее время: Сегодня 18:30

Часовой пояс: GMT + 4



Вы не можете начинать темы
Вы не можете отвечать на сообщения
Вы не можете редактировать свои сообщения
Вы не можете удалять свои сообщения
Вы не можете голосовать в опросах
Вы не можете прикреплять файлы к сообщениям
Вы не можете скачивать файлы

▼ Вниз