ML
     
  Уважаемый Гость!
Вы можете поддержать проект и зарегистрироваться у наших партнеров - онлайн-стратегия MyLands. При регистрации в игре Вы получите код, который сможете активировать после регистрации на pirat.ca и получить 1000 дублонов.

Ваш код:
ef8b3e8cd07bec918273586d22e5aaf18e0ae925
 
     

Риорита (Петр Тодоровский) [2008 г., военный, DVDRip]

Ответить на тему
 
Автор
Сообщение

Пост 30-Мар-2014 14:57

[Q] 

Мархуз

-Риорита-- Производство: Россия, «Мирабель»
Режиссер: Петр Тодоровский
Жанр: военный
Год выпуска: 2008 г.
Продолжительность: 01:37:22
В ролях: Константин Воробьев, Алексей Горбунов, Анатолий Гущин, Иван Криворучко, Дмитрий Ульянов, Яков Шамшин-Описание: Бывший надзиратель лагеря политзаключенных Бархатов, оказавшись на войне рядовым ефрейтором, не сумел, да и не захотел измениться в новых обстоятельствах и так и остался лагерным "вертухаем". И на войне, оказавшись вместе с наивными деревенскими людьми, он устроил маленький "кукольный" театр, где стал главным "кукловодом".
Главные герои фильма – семья Пичуговых – отец и три сына. Их мобилизовали в маленьком белорусском селе, освобожденном от немецкой оккупации в конце 1944 года. И потом они влились в армейское подразделение, успешно наступающее на Запад в начале 1945 года.-Качество видео: DVDRip
Контейнер: AVI
Видео кодек: XviD
Аудио кодек: AC3
Видео: 720x400; 1751 kbps; 25 fps; 0.243 bit/pixel
Аудио: 256 kbps; 2ch; 48 kHz
Cубтитры: отсутствуют
Общее
Полное имя : E:\Torrent\Riorita_[Pirat.ca].torrent.avi
Формат : AVI
Формат/Информация : Audio Video Interleave
Размер файла : 1,37 Гбайт
Продолжительность : 1 ч. 37 м.
Общий поток : 2014 Кбит/сек
Программа кодирования : VirtualDubMod 1.5.4.1 (build 2178/release)
Библиотека кодирования : VirtualDubMod build 2178/release
Видео
Идентификатор : 0
Формат : MPEG-4 Visual
Профиль формата : Advanced [email protected]
Параметр BVOP формата : 1
Параметр QPel формата : Нет
Параметр GMC формата : Без точки перехода
Параметр матрицы формата : Выборочная
Идентификатор кодека : XVID
Идентификатор кодека/Подсказка : XviD
Продолжительность : 1 ч. 37 м.
Битрейт : 1751 Кбит/сек
Ширина : 720 пикселей
Высота : 400 пикселей
Соотношение сторон : 16:9
Частота кадров : 25,000 кадров/сек
Цветовое пространство : YUV
Субдискретизация насыщенности : 4:2:0
Битовая глубина : 8 бит
Тип развёртки : Прогрессивная
Метод сжатия : С потерями
Бит/(Пиксели*Кадры) : 0.243
Размер потока : 1,19 Гбайт (87%)
Библиотека кодирования : XviD 1.2.0.dev47 (UTC 2006-11-01)
Аудио
Идентификатор : 1
Формат : AC-3
Формат/Информация : Audio Coding 3
Расширение режима : CM (complete main)
Параметр Endianness формата : Big
Идентификатор кодека : 2000
Продолжительность : 1 ч. 37 м.
Вид битрейта : Постоянный
Битрейт : 256 Кбит/сек
Каналы : 2 канала
Расположение каналов : Front: L R
Частота : 48,0 КГц
Битовая глубина : 16 бит
Метод сжатия : С потерями
Размер потока : 178 Мбайт (13%)
Выравнивание : Разделение по промежуткам
Продолжительность промежутка : 96 мс. (2,40 видеокадра)
Время предзагрузки промежутка : 96 мс.
Раздача с 14.00 до 2.30 (время московское)
Download / Скачать

Хотите скачать бесплатно? Зарегистрируйтесь на сайте (ссылка на регистрацию). Pirat.ca - самый быстрый торрент трекер в рунете!

Как скачивать  ·   Что такое торрент  ·   Рейтинг и ограничения

Пост 30-Мар-2014 15:16 (спустя 18 минут)

Топик был перенесен из форума Наше кино (Трюм) в форум Российские фильмы
aleksey99
 

RustySM

Лоцман

Пост 18-Апр-2014 21:42 (спустя 19 дней)

[Q] 

rum
Лови бочку
[Профиль]  [ЛС] 
Показать сообщения:    
Ответить на тему

Текущее время: Сегодня 18:39

Часовой пояс: GMT + 4



Вы не можете начинать темы
Вы не можете отвечать на сообщения
Вы не можете редактировать свои сообщения
Вы не можете удалять свои сообщения
Вы не можете голосовать в опросах
Вы не можете прикреплять файлы к сообщениям
Вы не можете скачивать файлы

▼ Вниз