ML
     
  Уважаемый Гость!
Вы можете поддержать проект и зарегистрироваться у наших партнеров - онлайн-стратегия MyLands. При регистрации в игре Вы получите код, который сможете активировать после регистрации на pirat.ca и получить 1000 дублонов.

Ваш код:
dbd0d701284cde74a1f34d06ce20b7bc75a73e75
 
     

Остров (Павел Лунгин) [2006 г., драма, DVDRip]

Ответить на тему
 
Автор
Сообщение

Пост 30-Мар-2014 16:02

[Q] 

Мархуз

-Остров-- Производство: Россия, студия Павла Лунгина
Режиссер: Павел Лунгин
Жанр: драма
Год выпуска: 2006 г.
Продолжительность: 01:49:46
В ролях: Петр Мамонов, Виктор Сухоруков, Дмитрий Дюжев, Юрий Кузнецов, Виктория Исакова, Нина Усатова, Яна Есипович, Ольга Демидова, Тимофей Трибунцев, Алексей Зеленский, Гриша Степунов, Сергей Бурунов-Описание: Фильм открывает эпизод времен Второй мировой войны. Немецкий сторожевой корабль захватывает в море небольшую баржу, на которой перевозят уголь двое русских. Одного, кочегара Анатолия, фашисты заставляют выдать, а затем и убить своего старшего товарища Тихона, вложив обезумевшему от страха и побоев юноше в руку пистолет. Анатолия оставляют в живых, чтобы через несколько минут взорвать вместе с баржей.
Действие переносится в 1976 год. На севере России, на пустынном острове в море, в маленькой православной обители нашел приют уцелевший после взрыва Анатолий. Работает истопником монастырской котельной, целыми днями возит тачку с углем, спит на куче угля и даже хоронить себя завещает в угольном ящике. Собратьев-монахов смущают его странности – то он зачем-то бросает в печь чужие сапоги, то громко кричит петухом, то кидает обгорелой головней в игумена. Но в каждой такой дикой выходке есть смысл — это, похоже, способ иносказания об очень важных вещах. На остров издалека приезжают люди, веря, что Анатолий способен дать мудрый совет, излечить болезнь, изгнать бесов. Он никому не отказывает в помощи, но страдает, тяготясь сознанием тяжести греха, совершенного тогда, на барже. Вымаливает прощение у убитого товарища. Но как узнать, что прощен, если ответа нет?-Качество видео: DVDRip
Контейнер: AVI
Видео кодек: XviD
Аудио кодек: AC3
Видео: 720x304; 1446 kbps; 25 fps; 0.264 bit/pixel
Аудио: 448 kbps; 6 ch; 48 kHz
Cубтитры: отсутствуют
2006 — лучший фильм на кинофестивале «Московская премьера».
2007 — Шесть премий «Золотой орёл» — «Лучший фильм года», «Лучшая мужская роль второго плана» (Виктор Сухоруков), «Лучшая мужская роль» (Петр Мамонов), «Лучший режиссёр» (Павел Лунгин), «Лучший сценарий» (Дмитрий Соболев), «Лучшая операторская работа» (Андрей Жегалов, посмертно).
2007 — Шесть премий «Ника» — «Лучший фильм года», «Лучшая мужская роль второго плана» (Виктор Сухоруков), «Лучшая мужская роль» (Петр Мамонов), «Лучшая режиссёрская работа» (Павел Лунгин), «Лучшая операторская работа» (Андрей Жегалов, посмертно), «Лучшая работа звукорежиссёра» (Стефан Альбине, Владимир Литровник, Степан Богданов).
Общее
Полное имя : E:\Torrent\Ostrov_[Pirat.ca].torrent.avi
Формат : AVI
Формат/Информация : Audio Video Interleave
Размер файла : 1,46 Гбайт
Продолжительность : 1 ч. 49 м.
Общий поток : 1904 Кбит/сек
Программа кодирования : VirtualDubMod 1.5.10.2 (build 2540/release)
Библиотека кодирования : VirtualDubMod build 2540/release
Видео
Идентификатор : 0
Формат : MPEG-4 Visual
Профиль формата : Advanced [email protected]
Параметр BVOP формата : 1
Параметр QPel формата : Нет
Параметр GMC формата : Без точки перехода
Параметр матрицы формата : Default (MPEG)
Идентификатор кодека : XVID
Идентификатор кодека/Подсказка : XviD
Продолжительность : 1 ч. 49 м.
Битрейт : 1446 Кбит/сек
Ширина : 720 пикселей
Высота : 304 пикселя
Соотношение сторон : 2,35:1
Частота кадров : 25,000 кадров/сек
Цветовое пространство : YUV
Субдискретизация насыщенности : 4:2:0
Битовая глубина : 8 бит
Тип развёртки : Прогрессивная
Метод сжатия : С потерями
Бит/(Пиксели*Кадры) : 0.264
Размер потока : 1,11 Гбайт (76%)
Библиотека кодирования : XviD 1.2.0.dev47 (UTC 2006-11-01)
Аудио
Идентификатор : 1
Формат : AC-3
Формат/Информация : Audio Coding 3
Расширение режима : CM (complete main)
Параметр Endianness формата : Big
Идентификатор кодека : 2000
Продолжительность : 1 ч. 49 м.
Вид битрейта : Постоянный
Битрейт : 448 Кбит/сек
Каналы : 6 каналов
Расположение каналов : Front: L C R, Side: L R, LFE
Частота : 48,0 КГц
Битовая глубина : 16 бит
Метод сжатия : С потерями
Задержка видео : 400 мс.
Размер потока : 352 Мбайт (24%)
Выравнивание : Разделение по промежуткам
Продолжительность промежутка : 40 мс. (1,00 видеокадр)
Время предзагрузки промежутка : 500 мс.
Раздача с 14.00 до 2.30 (время московское)
Download / Скачать

Хотите скачать бесплатно? Зарегистрируйтесь на сайте (ссылка на регистрацию). Pirat.ca - самый быстрый торрент трекер в рунете!

Как скачивать  ·   Что такое торрент  ·   Рейтинг и ограничения

Пост 30-Мар-2014 16:17 (спустя 15 минут)

Топик был перенесен из форума Наше кино (Трюм) в форум Российские фильмы
aleksey99
 

vovan200976

Флибустьер

Пост 30-Мар-2014 16:46 (спустя 44 минуты)

[Q] 

Фильм супер сколько раз смотрел и получал удовольствие от игры актеров !!! Лови бочку
[Профиль]  [ЛС] 

bolin

Флибустьер

Пост 30-Мар-2014 19:23 (спустя 2 часа 36 минут)

[Q] 

Отличный фильм!!! Смотрел раза четыре ВСЕМ КАЧАТЬ!!!
[Профиль]  [ЛС] 

Мархуз ®

4505

Пост 01-Апр-2014 14:27 (спустя 1 день 19 часов)

[Q] 

vovan200976, bolin, спасибо за отзывы. aa

_________________

Счастье для всех, даром, и пусть никто не уйдёт обиженный
[Профиль]  [ЛС] 

Inomad

Штурман

Пост 03-Апр-2014 11:43 (спустя 1 день 21 час)

[Q] 

Спасибо!!! Супер!
[Профиль]  [ЛС] 

Der_Joni

Шкипер

Пост 18-Сен-2014 17:54 (спустя 5 месяцев 15 дней)

[Q] 

Спасибо!!! Мне понравилось
[Профиль]  [ЛС] 

Vicflower

Шкипер

Пост 24-Фев-2015 10:52 (спустя 5 месяцев 5 дней)

[Q] 

Потрясающий фильм!!!! Очень сильный! И сценарий, и игра актеров - всё очень понравилось! Всем качать!!! Супер!
[Профиль]  [ЛС] 

trezwy

Штурман

Пост 12-Июн-2015 01:00 (спустя 3 месяца 15 дней)

[Q] 

Поддерживаю, замечательный фильм, несмотря на наших "правительственных агент врагов " я с Вами , пробьёмся через тьму неучей и бюрократов к светлому прокси-доступу))

_________________
Windows 7 Ultimate_x64+Windows 10 Pro_x64. Intel(R) Core(TM) i5 CPU 760 @ 2.80GHz, P7P55 LX, ОЗУ 8 ГБ, NVIDIA GeForce GTX 1060 6GB, C-Media CMI8738/C3DX(временно, Creative сдох), И дохрена места на хардах)))) клиент-Tixati
[Профиль]  [ЛС] 
Показать сообщения:    
Ответить на тему

Текущее время: Сегодня 18:35

Часовой пояс: GMT + 4



Вы не можете начинать темы
Вы не можете отвечать на сообщения
Вы не можете редактировать свои сообщения
Вы не можете удалять свои сообщения
Вы не можете голосовать в опросах
Вы не можете прикреплять файлы к сообщениям
Вы не можете скачивать файлы

▼ Вниз