ML
     
  Уважаемый Гость!
Вы можете поддержать проект и зарегистрироваться у наших партнеров - онлайн-стратегия MyLands. При регистрации в игре Вы получите код, который сможете активировать после регистрации на pirat.ca и получить 1000 дублонов.

Ваш код:
bb0cb47ee786a33f751af5a500dd264c9487bfac
 
     

Чёрная акула (Виталий Лукин) [1993 г., боевик, TVRip]

Ответить на тему
 
Автор
Сообщение

Пост 31-Мар-2014 13:26

[Q] 

Мархуз

-Чёрная акула-- Производство: Россия, Киностудия музыкальных фильмов
Режиссер: Виталий Лукин
Жанр: боевик
Год выпуска: 1993 г.
Продолжительность: 01:34:55
В ролях: Мартьямов Олег, Валерий Востротин, Каролина Скофилд, Юрий Цурило, Валерий Погребенков, Дмитрий Автухов, Сергей Михеев, Василий Мищенко, Сергей Чекан-Описание: Во время войны в Афганистане, в горах построен завод по производству наркотиков. «Тихим» местом заинтересовывается спецназ СССР, а также спецподразделение ВС США. Кто-то уничтожает охраняемый танками караван с наркотиками, взрывает дом наркодельца. Свидетели утверждают, что это дело рук дьявола, похожего на летающую черную акулу...-Качество видео: TVRip
Контейнер: AVI
Видео кодек: XviD
Аудио кодек: MP3
Видео: 704x528; 905 kbps; 25 fps; 0.097 bit/pixel
Аудио: 320 kbps; 2 ch; 44,1 kHz
Cубтитры: отсутствуют
Общее
Полное имя : E:\Torrent\Chernaya_Akula_[Pirat.ca].torrent.avi
Формат : AVI
Формат/Информация : Audio Video Interleave
Размер файла : 838 Мбайт
Продолжительность : 1 ч. 34 м.
Общий поток : 1235 Кбит/сек
Название фильма : Черная акула (1993)
Режиссёр : Rip by morgan73
Жанр : Боевик
Программа кодирования : VirtualDubMod 1.5.10.2 (build 2540/release)
Библиотека кодирования : VirtualDub build 35390/release
Формат оригинала/Имя : Видеофильм
Примечание : www.kinozal.tv
Видео
Идентификатор : 0
Формат : MPEG-4 Visual
Профиль формата : Advanced [email protected]
Параметр BVOP формата : 1
Параметр QPel формата : Нет
Параметр GMC формата : Без точки перехода
Параметр матрицы формата : Default (MPEG)
Режим смешивания : Сжатый битовый поток
Идентификатор кодека : XVID
Идентификатор кодека/Подсказка : XviD
Продолжительность : 1 ч. 34 м.
Битрейт : 905 Кбит/сек
Ширина : 704 пикселя
Высота : 528 пикселей
Соотношение сторон : 4:3
Частота кадров : 25,000 кадров/сек
Цветовое пространство : YUV
Субдискретизация насыщенности : 4:2:0
Битовая глубина : 8 бит
Тип развёртки : Прогрессивная
Метод сжатия : С потерями
Бит/(Пиксели*Кадры) : 0.097
Размер потока : 615 Мбайт (73%)
Библиотека кодирования : XviD 1.2.1 (UTC 2008-12-04)
Аудио
Идентификатор : 1
Формат : MPEG Audio
Версия формата : Version 1
Профиль формата : Layer 3
Идентификатор кодека : 55
Идентификатор кодека/Подсказка : MP3
Продолжительность : 1 ч. 34 м.
Вид битрейта : Постоянный
Битрейт : 320 Кбит/сек
Каналы : 2 канала
Частота : 44,1 КГц
Метод сжатия : С потерями
Размер потока : 217 Мбайт (26%)
Выравнивание : Разделение по промежуткам
Продолжительность промежутка : 40 мс. (1,00 видеокадр)
Время предзагрузки промежутка : 500 мс.
Библиотека кодирования : LAME3.98r
Настройки программы : -m s -V 4 -q 2 -lowpass 20.5
Раздача с 14.00 до 2.30 (время московское)
Download / Скачать

Хотите скачать бесплатно? Зарегистрируйтесь на сайте (ссылка на регистрацию). Pirat.ca - самый быстрый торрент трекер в рунете!

Как скачивать  ·   Что такое торрент  ·   Рейтинг и ограничения



Последний раз редактировалось: Мархуз (2014-04-01 16:20), всего редактировалось 1 раз

Пост 31-Мар-2014 18:26 (спустя 4 часа)

Топик был перенесен из форума Наше кино (Трюм) в форум Российские фильмы
aleksey99
 

Мархуз ®

4507

Пост 31-Мар-2014 19:03 (спустя 5 часов)

[Q] 

aleksey99, хорошо,спасибо,завтра перезалью.
Kaleksey99 писал(а):

Всё написал в ЛС.

_________________

Счастье для всех, даром, и пусть никто не уйдёт обиженный
[Профиль]  [ЛС] 

Мархуз ®

4507

Пост 01-Апр-2014 16:21 (спустя 21 час)

[Q] 

aleksey99, переведите пожалуйста раздачу в "трюм". Хочу перезалить. aa
Добавлено спустя 40 минут 11 секунд:
aleksey99, всё сделал.

_________________

Счастье для всех, даром, и пусть никто не уйдёт обиженный
[Профиль]  [ЛС] 
Показать сообщения:    
Ответить на тему

Текущее время: Сегодня 02:23

Часовой пояс: GMT + 4



Вы не можете начинать темы
Вы не можете отвечать на сообщения
Вы не можете редактировать свои сообщения
Вы не можете удалять свои сообщения
Вы не можете голосовать в опросах
Вы не можете прикреплять файлы к сообщениям
Вы не можете скачивать файлы

▼ Вниз