ML
     
  Уважаемый Гость!
Вы можете поддержать проект и зарегистрироваться у наших партнеров - онлайн-стратегия MyLands. При регистрации в игре Вы получите код, который сможете активировать после регистрации на pirat.ca и получить 1000 дублонов.

Ваш код:
74c28610d77aaac24ba694c4128f3b9b46b04220
 
     

За последней чертой (Николай Стамбула) [1991 г., боевик, DVDRip]

Ответить на тему
 
Автор
Сообщение

Пост 31-Мар-2014 22:35

[Q] 

Мархуз

-За последней чертой-- Производство: СССР, Киностудия «Круг»
Режиссер: Николай Стамбула
Жанр: боевик
Год выпуска: 1991 г.
Продолжительность: 01:42:12
В ролях: Евгений Сидихин, Игорь Тальков, Алина Таркинская, Александр Казаков, Виктор Степанов, Татьяна Лютаева, Екатерина Кмит, Владимир Тальков, Владимир Яковлев, Игорь Миркурбанов, Владимир Нисков, Александр Филяс, Федор Смирнов, Владимир Кашпур, Олег Маслов, Никита Джигурда-Описание: Боксер вышел из тюрьмы - девушка ушла к другому, в федерации ему перекрыли все пути. Он поехал продавать машину - его "кинули". Набил "кидалам" морды - забрали в милицию, откуда его вызволили сами бандиты во главе с Тальковым. Далее идет история бывшего спортсмена, ставшего рэкитером, но конец не вписывается в стандартную схему прибавления рядов преступности - не очень ловкий по жизни, но честный и простой парень не смог "работать" вышибалой. Сбежав из милиции, - его уже подставили под убийство милиционера - он взял в каждую руку по пистолету и перестрелял всех своих бывших "нанимателей".-Качество видео: DVDRip
Контейнер: AVI
Видео кодек: DivX
Аудио кодек: AC3
Видео: 704x528; 1718 kbps; 25 fps; 0.185 bit/pixel
Аудио: 192 kbps; 2 ch; 48 kHz
Общее
Полное имя : E:\Torrent\Za_poslednej_chertoj_[Pirat.ca].torrent.avi
Формат : AVI
Формат/Информация : Audio Video Interleave
Размер файла : 1,37 Гбайт
Продолжительность : 1 ч. 42 м.
Общий поток : 1917 Кбит/сек
Название фильма : Za.poslednej.chertoj.1991.DivX.DVDRip.PREMIYM.avi
Режиссёр : PREMIYM
Жанр : Action
Программа кодирования : VirtualDubMod 1.5.4.1 (build 2178/release)
Формат оригинала/Имя : Movie
Примечание : 2008.06.25
Видео
Идентификатор : 0
Формат : MPEG-4 Visual
Параметр BVOP формата : 1
Параметр QPel формата : Нет
Параметр GMC формата : Без точки перехода
Параметр матрицы формата : Default (H.263)
Режим смешивания : Сжатый битовый поток
Идентификатор кодека : DX50
Идентификатор кодека/Подсказка : DivX 5
Продолжительность : 1 ч. 42 м.
Битрейт : 1718 Кбит/сек
Ширина : 704 пикселя
Высота : 528 пикселей
Соотношение сторон : 4:3
Частота кадров : 25,000 кадров/сек
Цветовое пространство : YUV
Субдискретизация насыщенности : 4:2:0
Битовая глубина : 8 бит
Тип развёртки : Прогрессивная
Метод сжатия : С потерями
Бит/(Пиксели*Кадры) : 0.185
Размер потока : 1,23 Гбайт (90%)
Библиотека кодирования : DivX 6.7.0 (UTC 2007-09-20)
Аудио
Идентификатор : 1
Формат : AC-3
Формат/Информация : Audio Coding 3
Расширение режима : CM (complete main)
Параметр Endianness формата : Big
Идентификатор кодека : 2000
Продолжительность : 1 ч. 42 м.
Вид битрейта : Постоянный
Битрейт : 192 Кбит/сек
Каналы : 2 канала
Расположение каналов : Front: L R
Частота : 48,0 КГц
Битовая глубина : 16 бит
Метод сжатия : С потерями
Размер потока : 140 Мбайт (10%)
Выравнивание : Разделение по промежуткам
Продолжительность промежутка : 96 мс. (2,40 видеокадра)
Время предзагрузки промежутка : 96 мс.
Раздача с 14.00 до 2.30 (время московское)
Download / Скачать

Хотите скачать бесплатно? Зарегистрируйтесь на сайте (ссылка на регистрацию). Pirat.ca - самый быстрый торрент трекер в рунете!

Как скачивать  ·   Что такое торрент  ·   Рейтинг и ограничения

Пост 31-Мар-2014 22:52 (спустя 16 минут)

Топик был перенесен из форума Наше кино (Трюм) в форум Российские фильмы
kugesan
 
Показать сообщения:    
Ответить на тему

Текущее время: Сегодня 09:56

Часовой пояс: GMT + 4



Вы не можете начинать темы
Вы не можете отвечать на сообщения
Вы не можете редактировать свои сообщения
Вы не можете удалять свои сообщения
Вы не можете голосовать в опросах
Вы не можете прикреплять файлы к сообщениям
Вы не можете скачивать файлы

▼ Вниз