ML
     
  Уважаемый Гость!
Вы можете поддержать проект и зарегистрироваться у наших партнеров - онлайн-стратегия MyLands. При регистрации в игре Вы получите код, который сможете активировать после регистрации на pirat.ca и получить 1000 дублонов.

Ваш код:
59354507ba913a0948d1a8f2e30f2e04c4cd7b9b
 
     

Не валяй дурака (Валерий Чиков) [1997 г., комедия, DVDRip]

Ответить на тему
 
Автор
Сообщение

Пост 01-Апр-2014 00:54

[Q] 

Мархуз

-Не валяй дурака-- Производство: Россия, Театр Михаила Евдокимова
Режиссер: Валерий Чиков
Жанр: комедия
Год выпуска: 1997 г.
Продолжительность: 01:39:19
В ролях: Михаил Евдокимов, Лев Дуров, Кевин МакГир, Остин Т. Смот, Расселл Ла Дью, Скотт Каннингэм, Юрий Оленников, Валерий Золотухин, Татьяна Кравченко, Ольга Остроумова, Анастасия Заволокина, Сергей Агапитов-Описание: Американцы решили убедиться, что в районе архангельской деревни действительно нашли месторождение алмазов, и послали туда подводную лодку под командованием негра-ветерана, сопровождавшего конвои союзников во время 2-й мировой войны. В качестве отвлекающего маневра к берегу была подброшена бочка со спиртом, выловленная местным кузнецом Филимоном. По этому случаю устроили народное гулянье, к которому против своей воли постепенно были подключены и все американские подводники....-Качество видео: DVDRip
Контейнер: AVI
Видео кодек: XviD
Аудио кодек: MP3
Видео: 576x432; 818 kbps; 25.00fps; 0.132 bit/pixel
Аудио: 128 kbps; 2 ch; 48 kHz
Cубтитры: отсутствуют
Специальное упоминание жюри ОРКФ «Кинотавр-97»;
Специальный приз жюри (актер С.Агапитов, посмертно),
Приз зрительских симпатий ФРК «Окно в Европу-97»
Приз за женскую эпизодическую роль (Т.Кравченко) КФ «Созвездие-97».
General
Complete name : E:\Torrent\Ne_valjaj_duraka_[Pirat.ca].torrent.avi
Format : AVI
Format/Info : Audio Video Interleave
File size : 679 MiB
Duration : 1h 39mn
Overall bit rate : 956 Kbps
Writing application : VirtualDubModRus 1.5.10.2 (build 2542/release)
Writing library : VirtualDub build 35390/release
Video
ID : 0
Format : MPEG-4 Visual
Format profile : Advanced [email protected]
Format settings, BVOP : 2
Format settings, QPel : No
Format settings, GMC : No warppoints
Format settings, Matrix : Default (H.263)
Muxing mode : Packed bitstream
Codec ID : XVID
Codec ID/Hint : XviD
Duration : 1h 39mn
Bit rate : 818 Kbps
Width : 576 pixels
Height : 432 pixels
Display aspect ratio : 4:3
Frame rate : 25.000 fps
Color space : YUV
Chroma subsampling : 4:2:0
Bit depth : 8 bits
Scan type : Progressive
Compression mode : Lossy
Bits/(Pixel*Frame) : 0.132
Stream size : 581 MiB (86%)
Writing library : XviD 64
Audio
ID : 1
Format : MPEG Audio
Format version : Version 1
Format profile : Layer 3
Mode : Joint stereo
Mode extension : MS Stereo
Codec ID : 55
Codec ID/Hint : MP3
Duration : 1h 39mn
Bit rate mode : Constant
Bit rate : 128 Kbps
Channel(s) : 2 channels
Sampling rate : 48.0 KHz
Compression mode : Lossy
Stream size : 90.9 MiB (13%)
Alignment : Aligned on interleaves
Interleave, duration : 40 ms (1.00 video frame)
Interleave, preload duration : 504 ms
Writing library : LAME3.97b
Encoding settings : -m j -V 4 -q 2 -lowpass 17 -b 128
Раздача с 14.00 до 2.30 (время московское)
Download / Скачать

Хотите скачать бесплатно? Зарегистрируйтесь на сайте (ссылка на регистрацию). Pirat.ca - самый быстрый торрент трекер в рунете!

Как скачивать  ·   Что такое торрент  ·   Рейтинг и ограничения



Последний раз редактировалось: Мархуз (2014-09-26 02:40), всего редактировалось 2 раз(а)

aleksey99

282294

Пост 01-Апр-2014 10:18 (спустя 9 часов)

[Q] 

# сомнительно по причине не стандартного разрешения видео 580x432 - 580 не кратно 16-ти что означает что данное видео может некорректно воспроизводится на стандартных железных ДВД-плеерах.

_________________

[Профиль]  [ЛС] 

Пост 01-Апр-2014 10:18 (спустя 29 секунд)

Топик был перенесен из форума Наше кино (Трюм) в форум Российские фильмы
aleksey99
 

Qdevil

Корсар

Пост 01-Апр-2014 10:55 (спустя 37 минут)

[Q] 

умели снимать хорошие фильмы, сейчас такого и близко нет
[Профиль]  [ЛС] 

Мархуз ®

4505

Пост 01-Апр-2014 13:13 (спустя 2 часа 18 минут)

[Q] 

aleksey99, всё исправил, теперь кратно 16
Добавлено спустя 1 минута 55 секунд:
Qdevil, согласен, нынешняя режиссёрская школа, как впрочем и актёрская, оставляет желать лучшего.

_________________

Счастье для всех, даром, и пусть никто не уйдёт обиженный
[Профиль]  [ЛС] 

Vintorezov REG 39

Легенда

176

Пост 07-Окт-2014 19:47 (спустя 6 месяцев 6 дней)

[Q] 

А деревнях до сих пор бухают до 80% сельчан .
[Профиль]  [ЛС] 
Показать сообщения:    
Ответить на тему

Текущее время: Сегодня 16:06

Часовой пояс: GMT + 4



Вы не можете начинать темы
Вы не можете отвечать на сообщения
Вы не можете редактировать свои сообщения
Вы не можете удалять свои сообщения
Вы не можете голосовать в опросах
Вы не можете прикреплять файлы к сообщениям
Вы не можете скачивать файлы

▼ Вниз