ML
     
  Уважаемый Гость!
Вы можете поддержать проект и зарегистрироваться у наших партнеров - онлайн-стратегия MyLands. При регистрации в игре Вы получите код, который сможете активировать после регистрации на pirat.ca и получить 1000 дублонов.

Ваш код:
93dbf9fbdfa06c41d3b5a2c3921149ba36168c41
 
     

Марш-бросок (Николай Стамбула) [2003 г., военный, DVDRip]

Ответить на тему
 
Автор
Сообщение

Пост 01-Апр-2014 17:22

[Q] 

Мархуз

-Марш-бросок-- Производство: Россия, АРТЭС
Режиссер: Николай Стамбула
Жанр: военный
Год выпуска: 2003 г.
Продолжительность: 01:50:16
В ролях: Владимир Волга, Ольга Чурсина, Федор Смирнов, Александр Балуев, Сергей Гармаш, Сергей Болотаев, Евгений Косырев, Марат Гацалов, Александр Прудников, Дмитрий Дьяконов, Мария Шалаева, Вадим Цаллати-Описание: Молодой человек, воспитанник детского дома, стремится попасть на чеченскую войну, искренне веря, что именно там его место, и в этих тяжелых условиях он сможет проявить себя. Пройдя подготовку, Александр попадает в элитные войска спецназа и отправляется навстречу суровым испытаниям, которые ждут его на войне.
Он не изменяет своим жизненным принципам и проявляет себя как герой и настоящий мужчина, который не станет предателем, даже если от этого зависит его жизнь. А такие понятия, как настоящая мужская дружба, любовь и благородство - ценности вечные.
Преодолев все препятствия, познав боль потерь, герой находит свою любовь, обретает дом, где его будут ждать, куда он вернется с войны…-Качество видео: DVDRip
Контейнер: AVI
Видео кодек: XviD
Аудио кодек: AC3
Видео: 672x400; 1433 kbps; 25 fps; 0.213 bit/pixel
Аудио: 448 kbps; 6 сh; 48 kHz
Cубтитры: отсутствуют
Общее
Полное имя : E:\Torrent\Marsh_brosok_[Pirat.ca].torrent.avi
Формат : AVI
Формат/Информация : Audio Video Interleave
Размер файла : 1,46 Гбайт
Продолжительность : 1 ч. 50 м.
Общий поток : 1891 Кбит/сек
Режиссёр : zim2001
Программа кодирования : VirtualDubMod 1.5.10.2 (build 2540/release)
Видео
Идентификатор : 0
Формат : MPEG-4 Visual
Профиль формата : Advanced [email protected]
Параметр BVOP формата : 2
Параметр QPel формата : Нет
Параметр GMC формата : Без точки перехода
Параметр матрицы формата : Выборочная
Идентификатор кодека : XVID
Идентификатор кодека/Подсказка : XviD
Продолжительность : 1 ч. 50 м.
Битрейт : 1433 Кбит/сек
Ширина : 672 пикселя
Высота : 400 пикселей
Соотношение сторон : 1,680
Частота кадров : 25,000 кадров/сек
Цветовое пространство : YUV
Субдискретизация насыщенности : 4:2:0
Битовая глубина : 8 бит
Тип развёртки : Прогрессивная
Метод сжатия : С потерями
Бит/(Пиксели*Кадры) : 0.213
Размер потока : 1,10 Гбайт (76%)
Библиотека кодирования : XviD 56
Аудио
Идентификатор : 1
Формат : AC-3
Формат/Информация : Audio Coding 3
Расширение режима : CM (complete main)
Параметр Endianness формата : Big
Идентификатор кодека : 2000
Продолжительность : 1 ч. 50 м.
Вид битрейта : Постоянный
Битрейт : 448 Кбит/сек
Каналы : 6 каналов
Расположение каналов : Front: L C R, Side: L R, LFE
Частота : 48,0 КГц
Битовая глубина : 16 бит
Метод сжатия : С потерями
Размер потока : 353 Мбайт (24%)
Выравнивание : Разделение по промежуткам
Продолжительность промежутка : 40 мс. (1,00 видеокадр)
Время предзагрузки промежутка : 500 мс.
Раздача с 14.00 до 2.30 (время московское)
Download / Скачать

Хотите скачать бесплатно? Зарегистрируйтесь на сайте (ссылка на регистрацию). Pirat.ca - самый быстрый торрент трекер в рунете!

Как скачивать  ·   Что такое торрент  ·   Рейтинг и ограничения

Пост 01-Апр-2014 18:15 (спустя 52 минуты)

Топик был перенесен из форума Наше кино (Трюм) в форум Российские фильмы
aleksey99
 
Показать сообщения:    
Ответить на тему

Текущее время: Сегодня 20:24

Часовой пояс: GMT + 4



Вы не можете начинать темы
Вы не можете отвечать на сообщения
Вы не можете редактировать свои сообщения
Вы не можете удалять свои сообщения
Вы не можете голосовать в опросах
Вы не можете прикреплять файлы к сообщениям
Вы не можете скачивать файлы

▼ Вниз