ML
     
  Уважаемый Гость!
Вы можете поддержать проект и зарегистрироваться у наших партнеров - онлайн-стратегия MyLands. При регистрации в игре Вы получите код, который сможете активировать после регистрации на pirat.ca и получить 1000 дублонов.

Ваш код:
59354507ba913a0948d1a8f2e30f2e04c4cd7b9b
 
     

Бумер (Петр Буслов) [2003 г., криминал, DVDRip]

Ответить на тему
 
Автор
Сообщение

Пост 01-Апр-2014 19:56

[Q] 

Мархуз

-Бумер-- Производство: Россия, Кинокомпания «Пигмалион»
Режиссер: Петр Буслов
Жанр: криминал
Год выпуска: 2003 г.
Продолжительность: 01:49:53
В ролях: Владимир Вдовиченков, Андрей Мерзликин, Максим Коновалов, Сергей Горобченко, Яна Николаева, Людмила Полякова, Анастасия Сапожникова, Василий Седых, Евгений Крайнов, Алексей Зайцев-Описание: Никаких законов. Никаких правил. Никого не жалко. Никто не прав. И если мы пока еще не сталкивались с этим в жизни, это не значит, что этого не существует. Скорее, это значит, что нам пока везло. По ночным улицам Москвы мчится черный "BMW", уходящий от погони. Цепь роковых событий с разборками и стрельбой поставила четырех героев — четырех друзей - вне закона. В жизни без правил им нет пути назад, и черный «бумер» — мощный и надежный - уносит их всё дальше от Москвы, в шальную и безжалостную глушь российских дорог…-Качество видео: DVDRip
Контейнер: AVI
Видео кодек: XviD
Аудио кодек: AC3
Видео 1часть: 704x384; 1446 kbps; 25 fps; 0.214 bit/pixel
Видео 2часть: 704x384; 1445 kbps; 25 fps; 0.214 bit/pixel
Аудио: 448 kbps; 6 ch; 48 kHz
Cубтитры: отсутствуют
Фильм разбит на две части. Пробовал объединить- не получается.
1 часть
Общее
Полное имя : E:\Torrent\Bumer_[Pirat.ca].torrent\1 часть.avi
Формат : AVI
Формат/Информация : Audio Video Interleave
Размер файла : 702 Мбайт
Продолжительность : 51 м.
Общий поток : 1904 Кбит/сек
Программа кодирования : VirtualDubModRus 1.5.10.2 (build 2540/release)
Библиотека кодирования : VirtualDubMod build 2540/release
Видео
Идентификатор : 0
Формат : MPEG-4 Visual
Профиль формата : Advanced [email protected]
Параметр BVOP формата : 1
Параметр QPel формата : Нет
Параметр GMC формата : Без точки перехода
Параметр матрицы формата : Выборочная
Идентификатор кодека : XVID
Идентификатор кодека/Подсказка : XviD
Продолжительность : 51 м.
Битрейт : 1446 Кбит/сек
Ширина : 704 пикселя
Высота : 384 пикселя
Соотношение сторон : 1,85:1
Частота кадров : 25,000 кадров/сек
Цветовое пространство : YUV
Субдискретизация насыщенности : 4:2:0
Битовая глубина : 8 бит
Тип развёртки : Прогрессивная
Метод сжатия : С потерями
Бит/(Пиксели*Кадры) : 0.214
Размер потока : 534 Мбайт (76%)
Библиотека кодирования : XviD 64
Аудио
Идентификатор : 1
Формат : AC-3
Формат/Информация : Audio Coding 3
Расширение режима : CM (complete main)
Параметр Endianness формата : Big
Идентификатор кодека : 2000
Продолжительность : 51 м.
Вид битрейта : Постоянный
Битрейт : 448 Кбит/сек
Каналы : 6 каналов
Расположение каналов : Front: L C R, Side: L R, LFE
Частота : 48,0 КГц
Битовая глубина : 16 бит
Метод сжатия : С потерями
Задержка видео : 9 с. 257 мс.
Размер потока : 165 Мбайт (24%)
Выравнивание : Разделение по промежуткам
Продолжительность промежутка : 40 мс. (1,00 видеокадр)
Время предзагрузки промежутка : 500 мс.
2 часть
Общее
Полное имя : E:\Torrent\Bumer_[Pirat.ca].torrent\2 часть.avi
Формат : AVI
Формат/Информация : Audio Video Interleave
Размер файла : 794 Мбайт
Продолжительность : 58 м.
Общий поток : 1903 Кбит/сек
Программа кодирования : VirtualDubModRus 1.5.10.2 (build 2540/release)
Библиотека кодирования : VirtualDubMod build 2540/release
Видео
Идентификатор : 0
Формат : MPEG-4 Visual
Профиль формата : Advanced [email protected]
Параметр BVOP формата : 1
Параметр QPel формата : Нет
Параметр GMC формата : Без точки перехода
Параметр матрицы формата : Выборочная
Идентификатор кодека : XVID
Идентификатор кодека/Подсказка : XviD
Продолжительность : 58 м.
Битрейт : 1445 Кбит/сек
Ширина : 704 пикселя
Высота : 384 пикселя
Соотношение сторон : 1,85:1
Частота кадров : 25,000 кадров/сек
Цветовое пространство : YUV
Субдискретизация насыщенности : 4:2:0
Битовая глубина : 8 бит
Тип развёртки : Прогрессивная
Метод сжатия : С потерями
Бит/(Пиксели*Кадры) : 0.214
Размер потока : 603 Мбайт (76%)
Библиотека кодирования : XviD 64
Аудио
Идентификатор : 1
Формат : AC-3
Формат/Информация : Audio Coding 3
Расширение режима : CM (complete main)
Параметр Endianness формата : Big
Идентификатор кодека : 2000
Продолжительность : 58 м.
Вид битрейта : Постоянный
Битрейт : 448 Кбит/сек
Каналы : 6 каналов
Расположение каналов : Front: L C R, Side: L R, LFE
Частота : 48,0 КГц
Битовая глубина : 16 бит
Метод сжатия : С потерями
Размер потока : 187 Мбайт (24%)
Выравнивание : Разделение по промежуткам
Продолжительность промежутка : 40 мс. (1,00 видеокадр)
Время предзагрузки промежутка : 500 мс.
Раздача с 14.00 до 2.30 (время московское)
Download / Скачать

Хотите скачать бесплатно? Зарегистрируйтесь на сайте (ссылка на регистрацию). Pirat.ca - самый быстрый торрент трекер в рунете!

Как скачивать  ·   Что такое торрент  ·   Рейтинг и ограничения

Пост 01-Апр-2014 20:13 (спустя 17 минут)

Топик был перенесен из форума Наше кино (Трюм) в форум Российские фильмы
erchine
 

erda

Морской Волк

Пост 16-Апр-2014 21:53 (спустя 15 дней)

[Q] 

спасибо за классику жанра. жаль второй не так крут. Лови бочку
[Профиль]  [ЛС] 

theWanderer

Корсар

1014

Пост 20-Июл-2014 10:57 (спустя 3 месяца 3 дня)

[Q] 

Спасибо Лови бочку

_________________
Время раздачи: с 19-00 до 8-30
[Профиль]  [ЛС] 
Показать сообщения:    
Ответить на тему

Текущее время: Сегодня 16:10

Часовой пояс: GMT + 4



Вы не можете начинать темы
Вы не можете отвечать на сообщения
Вы не можете редактировать свои сообщения
Вы не можете удалять свои сообщения
Вы не можете голосовать в опросах
Вы не можете прикреплять файлы к сообщениям
Вы не можете скачивать файлы

▼ Вниз