ML
     
  Уважаемый Гость!
Вы можете поддержать проект и зарегистрироваться у наших партнеров - онлайн-стратегия MyLands. При регистрации в игре Вы получите код, который сможете активировать после регистрации на pirat.ca и получить 1000 дублонов.

Ваш код:
2a3da67fd641d69eeebb7cb965232435a70eaa24
 
     

Дубровский (Александр Вартанов, Кирилл Михановский) [2014 г., драма, DVDRip] [Лицензия]

Ответить на тему
 
Автор
Сообщение

Пост 01-Апр-2014 23:21

[Q] 

Gromilo

Флибустьер

-Дубровский-- Производство: Россия, «ТВИНДИ»
Режиссер: Александр Вартанов, Кирилл Михановский
Жанр: драма
Год выпуска: 2014 г.
Продолжительность: 02:05:15
Российская премьера: 6 марта 2014, «DreamTeam»
Дата выхода DVD: 7 апреля 2014, «Новый Диск»
Дата выхода Blu-Ray: 21 апреля 2014, «Новый Диск»-В ролях: Данила Козловский, Клавдия Коршунова, Юрий Цурило, Александр Мезенцев, Игорь Гордин, Дмитрий Поднозов, Елена Дудина, Евгений Вакунов, Артем Кобзев, Любовь Сергеева-Описание: Владимир Дубровский — успешный столичный юрист и завсегдатай модных клубов, Маша Троекурова — выпускница английского колледжа и нежная дочь… Хозяева собственных судеб, они едва ли похожи на героев Пушкина. Но внезапная ссора их отцов решительно меняет жизнь Владимира и Маши — они погружаются в реальность, где действуют совсем другие законы…-Сэмпл КиноПоиск
Качество видео: DVDRip
Контейнер: AVI
Видео кодек: XviD
Аудио кодек: AC3
Видео: 720x400 (16:9), 25.000 fps, XviD ~ 1889 kbps avg, 0.169 bit/pixel
Аудио: 48 kHz, Dolby AC3, 6 ch, 448 kbps, русский
Cубтитры: отсутствуют
Общее
Полное имя : Dubrovskiy.2014.O.DVDRip.2100MB.avi
Формат : AVI
Формат/Информация : Audio Video Interleave
Профиль формата : OpenDML
Размер файла : 2,06 Гбайт
Продолжительность : 2 ч. 5 м.
Общий поток : 2349 Кбит/сек
Программа кодирования : VirtualDubMod 1.5.10.3 || (build 2550/release)
Библиотека кодирования : VirtualDubMod build 2550/release
Видео
Идентификатор : 0
Формат : MPEG-4 Visual
Профиль формата : Advanced [email protected]
Параметр BVOP формата : 2
Параметр QPel формата : Нет
Параметр GMC формата : Без точки перехода
Параметр матрицы формата : Default (MPEG)
Идентификатор кодека : XVID
Идентификатор кодека/Подсказка : XviD
Продолжительность : 2 ч. 5 м.
Битрейт : 1889 Кбит/сек
Ширина : 720 пикселей
Высота : 400 пикселей
Соотношение сторон : 16:9
Частота кадров : 25,000 кадров/сек
Цветовое пространство : YUV
Субдискретизация насыщенности : 4:2:0
Битовая глубина : 8 бит
Тип развёртки : Прогрессивная
Метод сжатия : С потерями
Бит/(Пиксели*Кадры) : 0.262
Размер потока : 1,65 Гбайт (80%)
Библиотека кодирования : XviD 1.2.1 (UTC 2008-12-04)
Аудио
Идентификатор : 1
Формат : AC-3
Формат/Информация : Audio Coding 3
Расширение режима : CM (complete main)
Параметр Endianness формата : Big
Идентификатор кодека : 2000
Продолжительность : 2 ч. 5 м.
Вид битрейта : Постоянный
Битрейт : 448 Кбит/сек
Каналы : 6 каналов
Расположение каналов : Front: L C R, Side: L R, LFE
Частота : 48,0 КГц
Битовая глубина : 16 бит
Метод сжатия : С потерями
Размер потока : 401 Мбайт (19%)
Выравнивание : Разделение по промежуткам
Продолжительность промежутка : 40 мс. (1,00 видеокадр)
Время предзагрузки промежутка : 500 мс.
Download / Скачать

Хотите скачать бесплатно? Зарегистрируйтесь на сайте (ссылка на регистрацию). Pirat.ca - самый быстрый торрент трекер в рунете!

Как скачивать  ·   Что такое торрент  ·   Рейтинг и ограничения

Пост 02-Апр-2014 10:49 (спустя 11 часов)

Топик был перенесен из форума Наше кино (Трюм) в форум Новинки (HD|DVD|BD| TV|SAT|PDTV| - Rips)
aleksey99
 

Jek@

Легенда

Пост 02-Апр-2014 11:02 (спустя 11 часов)

[Q] 

Спасибо!!! .
[Профиль]  [ЛС] 

Gromilo ®

Флибустьер

5504

Пост 02-Апр-2014 11:15 (спустя 13 минут)

[Q] 

516365 Спасибо!!! .
Пожалуйста! Приятного просмотра

_________________
[Профиль]  [ЛС] 

kocmoc35

Морской Волк

Пост 02-Апр-2014 11:45 (спустя 29 минут)

[Q] 

Супер!
[Профиль]  [ЛС] 

alerden2010

Шкипер

Пост 02-Апр-2014 14:39 (спустя 2 часа 54 минуты)

[Q] 

dx спасибо Вы лучшие!
[Профиль]  [ЛС] 

s_steve

Лоцман

Пост 03-Апр-2014 12:30 (спустя 21 час)

[Q] 

Данила как актер нравится, а как человек не очень(
[Профиль]  [ЛС] 

AHDPUXA

Лоцман

Пост 08-Апр-2014 06:58 (спустя 4 дня)

[Q] 

Фильм очень нудный !
[Профиль]  [ЛС] 

Selim

Корсар

Пост 08-Апр-2014 10:13 (спустя 3 часа)

[Q] 

Глуповатенький фильм. Для любителей НТВ
[Профиль]  [ЛС] 

a s d

Шкипер

1

Пост 09-Май-2014 00:18 (спустя 1 месяц)

[Q] 

НТВ, ТНТ наше всё!!смирись быдло с новой идеологией!!! это безисходность и элита навека!!!убогое новорусское смотриво!!!
[Профиль]  [ЛС] 
Показать сообщения:    
Ответить на тему

Текущее время: Сегодня 01:13

Часовой пояс: GMT + 4



Вы не можете начинать темы
Вы не можете отвечать на сообщения
Вы не можете редактировать свои сообщения
Вы не можете удалять свои сообщения
Вы не можете голосовать в опросах
Вы не можете прикреплять файлы к сообщениям
Вы не можете скачивать файлы

▼ Вниз