ML
     
  Уважаемый Гость!
Вы можете поддержать проект и зарегистрироваться у наших партнеров - онлайн-стратегия MyLands. При регистрации в игре Вы получите код, который сможете активировать после регистрации на pirat.ca и получить 1000 дублонов.

Ваш код:
93dbf9fbdfa06c41d3b5a2c3921149ba36168c41
 
     

Война (Алексей Балабанов) [2002 г., военный, DVDRip]

Ответить на тему
 
Автор
Сообщение

Пост 02-Апр-2014 16:00

[Q] 

Мархуз

-Война-- Производство: Россия, Кинокомпания СВТ и Премьер Видео
Режиссер: Алексей Балабанов
Жанр: военный
Год выпуска: 2002 г.
Продолжительность: 01:59:54
В ролях: Алексей Чадов, Ингеборга Дапкунайте, Сергей Бодров-мл., Владимир Гостюхин, Иэн Келли, Георгий Гургулия-Описание: Аслан Гугаев, командир отряда чеченских боевиков, отпускает троих пленников. Двух русских солдат сержанта Ивана Ермакова и рядового Кулика — потому что они не контрактники, а призывники. И англичанина Джона Бойла — потому что он должен собрать два миллиона фунтов стерлингов и привезти деньги Гугаеву в качестве выкупа за свою невесту Маргарет. Маргарет остается у Аслана. Так же, как и капитан российской армии Медведев… За отведенные ему два месяца Джон не находит нужную сумму и не находит поддержки у британских властей, зато, вернувшись в Россию, находит Ваню Ермакова, живущего в Тобольске. Джон и Ваня опять едут в Чечню. Чтобы освободить английскую девушку Маргарет и русского капитана Медведева…-Качество видео: DVDRip
Контейнер: AVI
Видео кодек: XviD
Аудио кодек: AC3
Видео: 640 x 352; 891 kbps; 25 fps; 0.158 bit/pixel
Аудио: 384 kbps; 6 ch; 48 kHz
Cубтитры: отсутствуют
Общее
Полное имя : E:\Torrent\Vojna_[Pirat.ca].torrent.avi
Формат : AVI
Формат/Информация : Audio Video Interleave
Размер файла : 1,08 Гбайт
Продолжительность : 1 ч. 59 м.
Общий поток : 1285 Кбит/сек
Программа кодирования : Nandub v1.0rc2
Библиотека кодирования : VirtualDub build 23774/release
Видео
Идентификатор : 0
Формат : MPEG-4 Visual
Профиль формата : Advanced [email protected]
Параметр BVOP формата : 2
Параметр QPel формата : Нет
Параметр GMC формата : Без точки перехода
Параметр матрицы формата : Default (H.263)
Режим смешивания : Сжатый битовый поток
Идентификатор кодека : XVID
Идентификатор кодека/Подсказка : XviD
Продолжительность : 1 ч. 59 м.
Битрейт : 891 Кбит/сек
Ширина : 640 пикселей
Высота : 352 пикселя
Соотношение сторон : 16:9
Частота кадров : 25,000 кадров/сек
Цветовое пространство : YUV
Субдискретизация насыщенности : 4:2:0
Битовая глубина : 8 бит
Тип развёртки : Прогрессивная
Метод сжатия : С потерями
Бит/(Пиксели*Кадры) : 0.158
Размер потока : 764 Мбайт (69%)
Библиотека кодирования : XviD 1.2.1 (UTC 2008-12-04)
Аудио
Идентификатор : 1
Формат : AC-3
Формат/Информация : Audio Coding 3
Расширение режима : CM (complete main)
Параметр Endianness формата : Big
Идентификатор кодека : 2000
Продолжительность : 1 ч. 59 м.
Вид битрейта : Постоянный
Битрейт : 384 Кбит/сек
Каналы : 6 каналов
Расположение каналов : Front: L C R, Side: L R, LFE
Частота : 48,0 КГц
Битовая глубина : 16 бит
Метод сжатия : С потерями
Задержка видео : 80 мс.
Размер потока : 329 Мбайт (30%)
Выравнивание : Разделение по промежуткам
Продолжительность промежутка : 40 мс. (1,00 видеокадр)
Время предзагрузки промежутка : 500 мс.
Раздача с 14.00 до 2.30 (время московское)
Download / Скачать

Хотите скачать бесплатно? Зарегистрируйтесь на сайте (ссылка на регистрацию). Pirat.ca - самый быстрый торрент трекер в рунете!

Как скачивать  ·   Что такое торрент  ·   Рейтинг и ограничения

Пост 02-Апр-2014 16:19 (спустя 19 минут)

Топик был перенесен из форума Наше кино (Трюм) в форум Российские фильмы
aleksey99
 

Datchanin

Корсар

36

Пост 18-Май-2014 17:58 (спустя 1 месяц 16 дней)

[Q] 

Спасибо! Сильный фильм.

_________________
[Профиль]  [ЛС] 
Показать сообщения:    
Ответить на тему

Текущее время: Сегодня 20:19

Часовой пояс: GMT + 4



Вы не можете начинать темы
Вы не можете отвечать на сообщения
Вы не можете редактировать свои сообщения
Вы не можете удалять свои сообщения
Вы не можете голосовать в опросах
Вы не можете прикреплять файлы к сообщениям
Вы не можете скачивать файлы

▼ Вниз