ML
     
  Уважаемый Гость!
Вы можете поддержать проект и зарегистрироваться у наших партнеров - онлайн-стратегия MyLands. При регистрации в игре Вы получите код, который сможете активировать после регистрации на pirat.ca и получить 1000 дублонов.

Ваш код:
2fd4e750dd89cae3a36ea360f2b345ccfeb562d3
 
     

Я - русский солдат (Андрей Малюков) [1995 г., военный, TVRip]

Ответить на тему
 
Автор
Сообщение

Пост 03-Апр-2014 20:06

[Q] 

Мархуз

-Я - русский солдат -- Производство: Россия, ООО "Студия "Ренессанс"
Режиссер: Андрей Малюков
Жанр: военный
Год выпуска: 1995 г.
Продолжительность: 01:34:19
В ролях: Дмитрий Медведев, Милена Цховреба-Агранович, Алексей Булдаков, Петр Юрченков (старший), Александр Лырчиков, Дмитрий Ошеров, Наталья Высоцкая, Альберт Арнтгольц, Игорь Гневашев, Борис Миронюк, Геннадий Тимченко, Виктор Рыбчинский, Александр Пятков, Евгений Важенин-Описание: 21 июня 1941 года за несколько часов до войны выпускник пограничного училища лейтенант Коля Плужников, бывший московский школьник, попадает в приграничный Брест и в одном из ресторанчиков знакомится с поварихой командирской столовой. Коля и его ночная попутчица Мирра неторопливо возвращаются в часть по улочкам Бреста. А утром лейтенант Николай Плужников берет на себя командование гарнизоном и принимает первый бой с фашистами. Когда он окажется один на один с врагом, проводником и помощницей ему станет еврейская девушка Мирра, прекрасно знающая выходы к крепости. Путь к своим будет счастливым и трагическим. Мирра погибнет от рук полицая. Ненадолго переживет любимую русский солдат Коля Плужников.-Качество видео: TVRip
Контейнер: AVI
Видео кодек: XviD
Аудио кодек: AC3
Видео: 720x544; 852 kbps; 25 fps; 0.087 bit/pixel
Аудио: 192 kbps; 2 ch; 48 kHz
Cубтитры: отсутствуют
1996 — Большой специальный приз на Международном кинофестивале «Золотой витязь» в Минске
1996 — приз «Золотой лотос» на Международном кинофестивале в Пхеньяне (КНДР)
Общее
Полное имя : E:\Torrent\Ja_Russkij_Soldat_[Pirat.ca].torrent.avi
Формат : AVI
Формат/Информация : Audio Video Interleave
Размер файла : 711 Мбайт
Продолжительность : 1 ч. 34 м.
Общий поток : 1053 Кбит/сек
Программа кодирования : VirtualDubMod 1.5.4.1 (build 2178/release)
Библиотека кодирования : VirtualDub build 35390/release
Видео
Идентификатор : 0
Формат : MPEG-4 Visual
Профиль формата : Advanced [email protected]
Параметр BVOP формата : 1
Параметр QPel формата : Нет
Параметр GMC формата : Без точки перехода
Параметр матрицы формата : Default (MPEG)
Режим смешивания : Сжатый битовый поток
Идентификатор кодека : XVID
Идентификатор кодека/Подсказка : XviD
Продолжительность : 1 ч. 34 м.
Битрейт : 852 Кбит/сек
Ширина : 720 пикселей
Высота : 544 пикселя
Соотношение сторон : 4:3
Частота кадров : 25,000 кадров/сек
Цветовое пространство : YUV
Субдискретизация насыщенности : 4:2:0
Битовая глубина : 8 бит
Тип развёртки : Прогрессивная
Метод сжатия : С потерями
Бит/(Пиксели*Кадры) : 0.087
Размер потока : 575 Мбайт (81%)
Библиотека кодирования : XviD 1.2.1 (UTC 2008-12-04)
Аудио
Идентификатор : 1
Формат : AC-3
Формат/Информация : Audio Coding 3
Расширение режима : CM (complete main)
Параметр Endianness формата : Big
Идентификатор кодека : 2000
Продолжительность : 1 ч. 34 м.
Вид битрейта : Постоянный
Битрейт : 192 Кбит/сек
Каналы : 2 канала
Расположение каналов : Front: L R
Частота : 48,0 КГц
Битовая глубина : 16 бит
Метод сжатия : С потерями
Задержка видео : 24 мс.
Размер потока : 130 Мбайт (18%)
Выравнивание : Разделение по промежуткам
Продолжительность промежутка : 40 мс. (1,00 видеокадр)
Время предзагрузки промежутка : 500 мс.
Раздача с 14.00 до 2.30 (время московское)
Download / Скачать

Хотите скачать бесплатно? Зарегистрируйтесь на сайте (ссылка на регистрацию). Pirat.ca - самый быстрый торрент трекер в рунете!

Как скачивать  ·   Что такое торрент  ·   Рейтинг и ограничения

Azizyi

Лоцман

Пост 03-Апр-2014 20:10 (спустя 4 минуты)

[Q] 

Хорошее описание, заодно и сюжет рассказал.
[Профиль]  [ЛС] 

Пост 03-Апр-2014 20:20 (спустя 9 минут)

Топик был перенесен из форума Наше кино (Трюм) в форум Российские фильмы
kugesan
 

Мархуз ®

4504

Пост 03-Апр-2014 20:37 (спустя 26 минут)

[Q] 

Azizyi, а смотреть ещё интересней. ay

_________________

Счастье для всех, даром, и пусть никто не уйдёт обиженный
[Профиль]  [ЛС] 

Lelikkyy

Лоцман

Пост 16-Июн-2014 20:28 (спустя 2 месяца 12 дней)

[Q] 

Отличный фильм, как и Отличный роман Бориса Васильева "В списках не значился". На тему ВОВ, так-же Отличная повесть Бориса Васильева "А зори здесь, тихие" (фильм, кстати тоже Отличный). "Я, Русский солдат", снятый на копейки и без всяких спецэффектов. Вот, что значит режиссура, игра актёров и сюжет... Версия на 701 мб., качество видео и звука, аналогично 1,37 гб., а вот лучше тем, что (1) единицы нет (ярлык канала).
[Профиль]  [ЛС] 

be2014

Юнга

Пост 28-Июн-2014 01:52 (спустя 11 дней)

[Q] 

спасибо за труд ,,,,,ъ
[Профиль]  [ЛС] 
Показать сообщения:    
Ответить на тему

Текущее время: Сегодня 14:14

Часовой пояс: GMT + 4



Вы не можете начинать темы
Вы не можете отвечать на сообщения
Вы не можете редактировать свои сообщения
Вы не можете удалять свои сообщения
Вы не можете голосовать в опросах
Вы не можете прикреплять файлы к сообщениям
Вы не можете скачивать файлы

▼ Вниз