ML
     
  Уважаемый Гость!
Вы можете поддержать проект и зарегистрироваться у наших партнеров - онлайн-стратегия MyLands. При регистрации в игре Вы получите код, который сможете активировать после регистрации на pirat.ca и получить 1000 дублонов.

Ваш код:
4399ab8611ee7f8a22949d2ee7634160dd2db7e0
 
     

Ход конём / The Knight's Move (Гор Киракосян / Gor Kirakosian) [2013 г., Комедия, приключения, WEBRip] MVO

Ответить на тему
 
Автор
Сообщение

Пост 03-Апр-2014 20:22

[Q] 

erchine

Ход конём / The Knight's Move
Производство: Армения, Казахстан, Шарм Холдинг, Sharm Pictures
Год выпуска: 2013
Жанр: Комедия, приключения
Продолжительность: 01:37:15
Перевод: Профессиональный (многоголосый закадровый)
Режиссер: Гор Киракосян / Gor Kirakosian
В ролях: Ованнес Азоян, Асель Сагатова, Мкртыч Арзуманян, Санжар Мадиев, Сос Джанибекян, Левон Арутюнян, Арташес Алексанян, Бахытжан Альпеисов, Джульетта Степанян, Луиза Нерсисян
Описание: На международном шахматном турнире к армянскому шахматисту Тиграну случайно попадает древнее сокровище музея — рубин Тамерлана, который в это время пытается похитить умелый вор Мурад. По поручению мафии Мурад отправляется за Тиграном в Армению, чтоб вернуть реликвию. Так и начинается забавное и полное курьезных ситуаций дорожное приключение в погоне за рубином…-КиноПоиск / IMDB / Сэмпл-Качество: WEBRip
Контейнер: AVI
Видео кодек: XviD
Аудио кодек: AC3
Видео: XviD, 1811 Кбит/с, 720х304, 0.331 bit/pixel
Аудио: AC3, 2 ch, 192 Кбит/с, 44,1 kHz
Общее
Полное имя : H:\X0d.k0nem.2013.WEBRip.avi
Формат : AVI
Формат/Информация : Audio Video Interleave
Размер файла : 1,37 Гбайт
Продолжительность : 1 ч. 37 м.
Общий поток : 2013 Кбит/сек
Программа кодирования : VirtualDubMod 1.5.10.3 | www.virtualdub-fr.org || (build 2550/release)
Библиотека кодирования : VirtualDubMod build 2550/release
Видео
Идентификатор : 0
Формат : MPEG-4 Visual
Профиль формата : Advanced [email protected]
Параметр BVOP формата : 2
Параметр QPel формата : Нет
Параметр GMC формата : Без точки перехода
Параметр матрицы формата : Выборочная
Идентификатор кодека : XVID
Идентификатор кодека/Подсказка : XviD
Продолжительность : 1 ч. 37 м.
Битрейт : 1811 Кбит/сек
Ширина : 720 пикселей
Высота : 304 пикселя
Соотношение сторон : 2,35:1
Частота кадров : 25,000 кадров/сек
Цветовое пространство : YUV
Субдискретизация насыщенности : 4:2:0
Битовая глубина : 8 бит
Тип развёртки : Прогрессивная
Метод сжатия : С потерями
Бит/(Пиксели*Кадры) : 0.331
Размер потока : 1,23 Гбайт (90%)
Библиотека кодирования : XviD 1.2.1 (UTC 2008-12-04)
Аудио
Идентификатор : 1
Формат : AC-3
Формат/Информация : Audio Coding 3
Расширение режима : CM (complete main)
Параметр Endianness формата : Big
Идентификатор кодека : 2000
Продолжительность : 1 ч. 37 м.
Вид битрейта : Постоянный
Битрейт : 192 Кбит/сек
Каналы : 2 канала
Расположение каналов : Front: L R
Частота : 44,1 КГц
Битовая глубина : 16 бит
Метод сжатия : С потерями
Размер потока : 134 Мбайт (10%)
Выравнивание : Разделение по промежуткам
Продолжительность промежутка : 40 мс. (1,00 видеокадр)
Время предзагрузки промежутка : 500 мс.
Download / Скачать

Хотите скачать бесплатно? Зарегистрируйтесь на сайте (ссылка на регистрацию). Pirat.ca - самый быстрый торрент трекер в рунете!

Как скачивать  ·   Что такое торрент  ·   Рейтинг и ограничения



Последний раз редактировалось: erchine (2014-04-14 19:22), всего редактировалось 1 раз

Urlhtml

Корсар

Пост 04-Апр-2014 09:47 (спустя 13 часов)

[Q] 

На любителя Кто здесь?
[Профиль]  [ЛС] 

airat85

Корсар

Пост 04-Апр-2014 17:34 (спустя 7 часов)

[Q] 

спасибо! посмотрим и оценим!!! Лови бочку
[Профиль]  [ЛС] 

Gari4

Флибустьер

Пост 04-Апр-2014 18:00 (спустя 25 минут)

[Q] 

ууу пожалуй нет..
[Профиль]  [ЛС] 

ягжин

Гроза морей

Пост 04-Апр-2014 20:00 (спустя 1 час 59 минут)

[Q] 

Нуу......!Странно!
[Профиль]  [ЛС] 

RedHawk

Флибустьер

Пост 04-Апр-2014 20:03 (спустя 3 минуты)

[Q] 

Странно мягко сказано....
[Профиль]  [ЛС] 

ak_raf

Лоцман

Пост 04-Апр-2014 20:31 (спустя 28 минут)

[Q] 

Спасибо На любителя
[Профиль]  [ЛС] 

KoIIIaK

Штурман

Пост 04-Апр-2014 22:23 (спустя 1 час 52 минуты)

[Q] 

посмотрим! На любителя
[Профиль]  [ЛС] 

olipov

Легенда

Пост 05-Апр-2014 00:36 (спустя 2 часа 13 минут)

[Q] 

рейтинг высокий.. надо посмотреть на досуге...
[Профиль]  [ЛС] 

ho88ed

Штурман

Пост 05-Апр-2014 03:16 (спустя 2 часа 39 минут)

[Q] 

Веселая, не напряжная комедия, времени не жаль. Армяне v.s. Казахи на русском очень.
[Профиль]  [ЛС] 

platon18

Гроза морей

Пост 05-Апр-2014 08:53 (спустя 5 часов)

[Q] 

тупая фигня, не смотреть!
[Профиль]  [ЛС] 

ягжин

Гроза морей

Пост 05-Апр-2014 15:04 (спустя 6 часов)

[Q] 

Попробуем! Спасибо!!!
[Профиль]  [ЛС] 

sba

Морской Волк

Пост 05-Апр-2014 22:01 (спустя 6 часов)

[Q] 

Спасибо! ...посмотрим!
[Профиль]  [ЛС] 

Танюха10988

Гроза морей

Пост 06-Апр-2014 13:39 (спустя 15 часов)

[Q] 

Посмотрим, спасибо!
[Профиль]  [ЛС] 

E8GEN

Корсар

Пост 07-Апр-2014 16:25 (спустя 1 день 2 часа)

[Q] 

Занимаясь своими делами,вполглаза можно и посмотреть)Не напряжно и сюжет,и интрига есть)Над некоторыми шутками даже посмеяться можно...
[Профиль]  [ЛС] 

OleksBy

Корсар

Пост 07-Апр-2014 19:19 (спустя 2 часа 54 минуты)

[Q] 

судя по рейтингу, стоит глянуть... автору спасибо
[Профиль]  [ЛС] 

mrdim-CHEHOV

Флибустьер

Пост 07-Апр-2014 22:15 (спустя 2 часа 55 минут)

[Q] 

Раздающему респект! глянем...

_________________
Все будет не так, как мы решим. Все будет тогда, когда мы решимся.
[Профиль]  [ЛС] 

Qwert-lawyer

Штурман

Пост 08-Апр-2014 22:21 (спустя 1 день)

[Q] 

прикольный необычный фильм
[Профиль]  [ЛС] 

ivan993

Морской Волк

Пост 25-Авг-2015 12:35 (спустя 1 год 4 месяца)

[Q] 

А можете выложить Ход Конем 1992 года с Кристофером Ламбертом в переводе А.Ю.ГАВРИЛОВА? aa
[Профиль]  [ЛС] 
Показать сообщения:    
Ответить на тему

Текущее время: Сегодня 10:46

Часовой пояс: GMT + 4



Вы не можете начинать темы
Вы не можете отвечать на сообщения
Вы не можете редактировать свои сообщения
Вы не можете удалять свои сообщения
Вы не можете голосовать в опросах
Вы не можете прикреплять файлы к сообщениям
Вы не можете скачивать файлы

▼ Вниз